<?xml version="1.0" standalone="no"?>
<!DOCTYPE svg PUBLIC "-//W3C//DTD SVG 1.1//EN" "http://www.w3.org/Graphics/SVG/1.1/DTD/svg11.dtd" >
<svg xmlns="http://www.w3.org/2000/svg" xmlns:xlink="http://www.w3.org/1999/xlink" version="1.1">
<metadata>
Created by FontForge 20170812 at Sun Apr 14 21:27:55 2019
 By www-data
Copyright (c) 2019 Monotype Imaging Inc. All rights reserved.
</metadata>
<defs>
<font id="HelveticaNowText-Regular" horiz-adv-x="640" >
  <font-face 
    font-family="HelveticaNowText Regular"
    font-weight="400"
    font-stretch="normal"
    units-per-em="1000"
    panose-1="2 11 5 4 3 2 2 2 2 4"
    ascent="875"
    descent="-125"
    x-height="516"
    cap-height="712"
    bbox="-331.999 -345 1597 1109"
    underline-thickness="50"
    underline-position="-250"
    unicode-range="U+000D-FEFF"
  />
<missing-glyph horiz-adv-x="733" 
d="M648 0h-563v712h563v-712zM178 631v-550h377v550h-377z" />
    <glyph glyph-name="fi" unicode="fi" horiz-adv-x="610" 
d="M123 513v44c0 54 12.333 93.333 37 118s64 37 118 37h55v-77h-53c-24.667 0 -41.667 -4.66699 -51 -14s-14 -26.333 -14 -51v-58l118 4v-71l-118 4v-449h-92v449l-83 -4v71zM438 613v99h92v-99h-92zM530 0h-92v516h92v-516z" />
    <glyph glyph-name="fl" unicode="fl" horiz-adv-x="610" 
d="M123 513v44c0 54 12.333 93.333 37 118s64 37 118 37h55v-77h-53c-24.667 0 -41.667 -4.66699 -51 -14s-14 -26.333 -14 -51v-58l118 4v-71l-118 4v-449h-92v449l-83 -4v71zM438 0v712h92v-712h-92z" />
    <glyph glyph-name=".notdef" horiz-adv-x="733" 
d="M648 0h-563v712h563v-712zM178 631v-550h377v550h-377z" />
    <glyph glyph-name="NULL" horiz-adv-x="0" 
 />
    <glyph glyph-name="NULL" horiz-adv-x="0" 
 />
    <glyph glyph-name="CR" unicode="&#xd;" horiz-adv-x="270" 
 />
    <glyph glyph-name="space" unicode=" " horiz-adv-x="270" 
 />
    <glyph glyph-name="exclam" unicode="!" horiz-adv-x="273" 
d="M156 168h-39l-27 339v205h93v-205zM188 0h-103v101h103v-101z" />
    <glyph glyph-name="quotedbl" unicode="&#x22;" horiz-adv-x="440" 
d="M162 436h-82v276h82v-276zM360 436h-81v276h81v-276z" />
    <glyph glyph-name="numbersign" unicode="#" horiz-adv-x="673" 
d="M630 527v-76l-120 3l-28 -196l110 3v-75l-119 3l-27 -189h-75l27 190h-169l-27 -190h-75l27 189l-111 -3v75l120 -3l28 196l-110 -3v76l120 -3l26 188h75l-27 -189h169l27 189h75l-26 -188zM266 455l-28 -198h169l28 198h-169z" />
    <glyph glyph-name="dollar" unicode="$" 
d="M573 210c0 -57.333 -18.501 -104.501 -55.501 -141.501s-87.5 -59.167 -151.5 -66.5v-146h-79v146c-128 10.667 -201 83.667 -219 219h88c6 -49.333 22.333 -85.666 49 -108.999s67.334 -35 122.001 -35c51.333 0 90.166 11 116.499 33s39.5 51.667 39.5 89
c0 32 -9.83301 56.833 -29.5 74.5s-51.5 31.5 -95.5 41.5l-80 19c-124 29.333 -186 92.333 -186 189c0 54 16.833 97.333 50.5 130s81.834 51.667 144.501 57v137h79v-137c114 -12 177.333 -75.333 190 -190h-88c-6 39.333 -20.833 68.333 -44.5 87s-58.167 28 -103.5 28
c-92 0 -138 -36.333 -138 -109c0 -28 9 -50.833 27 -68.5s49.667 -32.167 95 -43.5l81 -19c66 -16 113.833 -39 143.5 -69s44.5 -68.667 44.5 -116z" />
    <glyph glyph-name="percent" unicode="%" horiz-adv-x="1217" 
d="M269 305c-60 0 -105.667 19.333 -137 58s-47 94.667 -47 168s15.667 129.333 47 168s77 58 137 58c60.667 0 106.667 -19.333 138 -58s47 -94.667 47 -168s-15.667 -129.333 -47 -168s-77.333 -58 -138 -58zM420 -15h-93l448 742h91zM193 412
c16 -24 41.332 -35.999 75.999 -35.999s60.334 12.333 77.001 37c16.667 23.333 25 62.666 25 117.999c0 54.667 -8.33301 94.334 -25 119.001c-17.333 24 -43 36 -77 36c-34.667 0 -60 -12 -76 -36c-16.667 -24.667 -25 -64.334 -25 -119.001
c0 -56 8.33301 -95.667 25 -119zM946.999 -15.999c-60 0 -105.667 19.333 -137 58s-47 94.667 -47 168s15.667 129.333 47 168s77 58 137 58c60.667 0 106.667 -19.333 138 -58s47 -94.667 47 -168s-15.667 -129.333 -47 -168s-77.333 -58 -138 -58zM870.999 91.001
c16 -24 41.332 -35.999 75.999 -35.999s60.334 12.333 77.001 37c16.667 23.333 25 62.666 25 117.999c0 54.667 -8.33301 94.334 -25 119.001c-17.333 24 -43 36 -77 36c-34.667 0 -60 -12 -76 -36c-16.667 -24.667 -25 -64.334 -25 -119.001
c0 -56 8.33301 -95.667 25 -119z" />
    <glyph glyph-name="ampersand" unicode="&#x26;" horiz-adv-x="783" 
d="M616 143l141.998 -144h-122l-75 76c-60.667 -60.667 -136 -91 -226 -91c-76 0 -137.333 19.333 -184 58c-47.333 38 -71 89.333 -71 154c0 98 53.667 166.667 161 206c-50 54.667 -75 107.667 -75 159c0 50 17.667 90.667 53 122c34.667 30.667 80.334 46 137.001 46
s102.667 -15.167 138 -45.5s53 -70.5 53 -120.5c0 -82 -53 -144.667 -159 -188l171 -173c16.667 36 27.334 76.333 32.001 121l88 -1c-8.66699 -68 -29.667 -127.667 -63 -179zM354.998 651c-28.667 0 -52.5 -8 -71.5 -24s-28.5 -37.667 -28.5 -65
c0 -35.333 17.333 -70.333 52 -105l25 -26c84 29.333 126 72 126 128c0 27.333 -9.66699 49.5 -29 66.5s-44 25.5 -74 25.5zM337.998 61c69.333 0 125.334 23.332 168.001 69.999l-211 215c-85.333 -29.333 -128 -78.333 -128 -147c0 -41.333 15.167 -74.666 45.5 -99.999
s72.166 -38 125.499 -38z" />
    <glyph glyph-name="quotesingle" unicode="'" horiz-adv-x="241" 
d="M161 436h-81v276h81v-276z" />
    <glyph glyph-name="parenleft" unicode="(" horiz-adv-x="339" 
d="M296 -204h-79c-102 137.333 -153 294.333 -153 471c0 183.333 51 343.333 153 480h79c-93.333 -142.667 -140 -302.667 -140 -480c0 -171.333 46.667 -328.333 140 -471z" />
    <glyph glyph-name="parenright" unicode=")" horiz-adv-x="339" 
d="M122 -204h-79c93.333 142.667 140 299.667 140 471c0 177.333 -46.667 337.333 -140 480h79c102 -136.667 153 -296.667 153 -480c0 -176.667 -51 -333.667 -153 -471z" />
    <glyph glyph-name="asterisk" unicode="*" horiz-adv-x="543" 
d="M272 481l-84 -125l-63 41l97 118l-142 45l26 65l135 -56l-5 143h71l-5 -143l135 56l26 -65l-142 -45l94 -118l-59 -41z" />
    <glyph glyph-name="plus" unicode="+" 
d="M360 350h235v-80h-235v-234h-80v234h-234v80h234v235h80v-235z" />
    <glyph glyph-name="comma" unicode="," horiz-adv-x="300" 
d="M106 -143h-10v50h10c31.333 0 47 15.667 47 47v51l-58 -5v100h110v-135c0 -72 -33 -108 -99 -108z" />
    <glyph glyph-name="hyphen" unicode="-" horiz-adv-x="380" 
d="M330 208h-280v83h280v-83z" />
    <glyph glyph-name="period" unicode="." horiz-adv-x="283" 
d="M198 0h-113v101h113v-101z" />
    <glyph glyph-name="slash" unicode="/" horiz-adv-x="468" 
d="M132 0h-92l296 712h92z" />
    <glyph glyph-name="zero" unicode="0" 
d="M319 -12c-163.333 0 -245 122.667 -245 368c0 124.667 20.5 217.167 61.5 277.5s102.833 90.5 185.5 90.5s144.167 -30 184.5 -90s60.5 -152.667 60.5 -278c0 -245.333 -82.333 -368 -247 -368zM205 137c24 -45.333 62.668 -68 116.001 -68s91.666 22.667 114.999 68
s35 118.333 35 219s-11.833 173.667 -35.5 219s-62.167 68 -115.5 68s-91.833 -22.667 -115.5 -68s-35.5 -118.333 -35.5 -219c0 -101.333 12 -174.333 36 -219z" />
    <glyph glyph-name="one" unicode="1" horiz-adv-x="449" 
d="M321 0h-92.999v516h-185v70h27c52 0 91.333 9.66699 118 29c25.333 19.333 43.666 48 54.999 86l3 11h75v-712z" />
    <glyph glyph-name="two" unicode="2" 
d="M555 0l-473.001 0.000976562c4 64.667 18.5 118.834 43.5 162.501s64.833 82.5 119.5 116.5l124 77c64.667 39.333 97 88.666 97 147.999c0 42 -12.333 74.667 -37 98s-58 35 -100 35c-44.667 0 -79.167 -13.5 -103.5 -40.5s-36.5 -66.167 -36.5 -117.5v-11h-93v15
c0 72 21.667 129.667 65 173c42.667 42.667 99.334 64 170.001 64c66 0 120.667 -19 164 -57c42.667 -38 64 -89.667 64 -155c0 -88.667 -45 -161.334 -135 -218.001l-89 -56c-52 -32.667 -87.333 -59 -106 -79c-19.333 -21.333 -30.333 -45 -33 -71h359v-84z" />
    <glyph glyph-name="three" unicode="3" 
d="M321 -14c-80.667 0 -144.835 21.168 -192.502 63.501s-72.834 101.166 -75.501 176.499h93c4.66699 -104.667 63.667 -157 177 -157c55.333 0 97.333 12.167 126 36.5s43 58.166 43 101.499c0 40.667 -12.667 71.834 -38 93.501s-62.666 32.5 -111.999 32.5h-76v81h51
c90 0 135 36.667 135 110c0 76 -46.667 114 -140 114c-46.667 0 -81.167 -11 -103.5 -33s-34.833 -57.667 -37.5 -107h-93c2.66699 71.333 24.834 126.333 66.501 165s98.834 58 171.501 58c69.333 0 125.333 -17.333 168 -52c42 -35.333 63 -81 63 -137
c0 -70.667 -35 -120.667 -105 -150v-3c47.333 -9.33301 83.333 -28.833 108 -58.5s37 -67.5 37 -113.5c0 -66.667 -24.333 -120 -73 -160c-48.667 -40.667 -113 -61 -193 -61z" />
    <glyph glyph-name="four" unicode="4" 
d="M471 712v-463h115v-81h-115v-168h-93v168h-324v87l346 457h71zM149 249h229v299h-2z" />
    <glyph glyph-name="five" unicode="5" 
d="M314 -16c-68 0 -122.832 18.167 -164.499 54.5s-66.167 86.5 -73.5 150.5h90c6 -41.333 22.333 -73 49 -95s60.667 -33 102 -33c48 0 85.167 14.667 111.5 44s39.5 70.333 39.5 123c0 52 -13.333 92.667 -40 122s-63.334 44 -110.001 44c-55.333 0 -99 -20.667 -131 -62
h-93l71 380h360v-84h-295l-38 -203l2 -2c44.667 32 92.334 48 143.001 48c69.333 0 124.666 -22.667 165.999 -68c40 -46 60 -103.667 60 -173c0 -71.333 -21.667 -130.333 -65 -177c-44 -46 -105.333 -69 -184 -69z" />
    <glyph glyph-name="six" unicode="6" 
d="M340 464c68 0 122.333 -21.335 163 -64.002s61 -98.667 61 -168c0 -73.333 -21.667 -132.666 -65 -177.999c-44 -44.667 -102.667 -67 -176 -67c-76 0 -135.667 27 -179 81c-46 58.667 -69 149.334 -69 272.001s22.167 217.834 66.5 285.501s108.166 101.5 191.499 101.5
c60.667 0 110.5 -16.833 149.5 -50.5s60.167 -78.834 63.5 -135.501h-88c-4.66699 34 -18.167 60.667 -40.5 80s-51.166 29 -86.499 29c-105.333 0 -161 -91.333 -167 -274c40 58.667 98.667 88 176 88zM218 107.998c27.333 -29.333 63.001 -44.001 107.001 -44.001
c43.333 0 78.666 14.667 105.999 44c26.667 28.667 40 68.334 40 119.001c0 49.333 -13 88.333 -39 117s-61.333 43 -106 43c-44 0 -79.833 -14.333 -107.5 -43s-41.5 -66.667 -41.5 -114c0 -52 13.667 -92.667 41 -122z" />
    <glyph glyph-name="seven" unicode="7" 
d="M269 0h-99.001c14.667 139.333 45.334 259.5 92.001 360.5s112 189.5 196 265.5h-389v86h501v-72c-90 -74 -159.5 -162.833 -208.5 -266.5s-79.833 -228.167 -92.5 -373.5z" />
    <glyph glyph-name="eight" unicode="8" 
d="M514 41c-50.667 -38 -115.334 -57 -194.001 -57c-77.333 0 -141.666 19 -192.999 57s-77 91 -77 159c0 45.333 12.167 84 36.5 116s57.833 54.333 100.5 67v1c-68 30.667 -102 83.334 -102 158.001c0 56 21.333 100.333 64 133s99.667 49 171 49s128.333 -16.333 171 -49
s64 -77 64 -133c0 -74.667 -34 -127.334 -102 -158.001v-1c42.667 -12.667 76.167 -35 100.5 -67s36.5 -70.667 36.5 -116c0 -68 -25.333 -121 -76 -159zM320 419c47.333 0 83.666 10.167 108.999 30.5s38 49.166 38 86.499c0 74 -49 111 -147 111s-147 -37 -147 -111
c0 -37.333 12.833 -66.166 38.5 -86.499s61.834 -30.5 108.501 -30.5zM192 99c31.333 -25.333 74 -38 128 -38s96.667 12.667 128 38s47 60 47 104c0 43.333 -15.667 77.333 -47 102s-74 37 -128 37s-96.667 -12.333 -128 -37s-47 -58.667 -47 -102
c0 -44 15.667 -78.667 47 -104z" />
    <glyph glyph-name="nine" unicode="9" 
d="M496 646c46 -58.667 68.999 -149.332 68.999 -271.999s-22.167 -217.834 -66.5 -285.501s-108.166 -101.5 -191.499 -101.5c-60.667 0 -110.5 16.833 -149.5 50.5s-60.167 78.834 -63.5 135.501h88c4.66699 -34 18.167 -60.667 40.5 -80s51.166 -29 86.499 -29
c105.333 0 161 91.333 167 274c-40 -58.667 -98.667 -88 -176 -88c-67.333 0 -121.333 21.333 -162 64c-41.333 43.333 -62 99.333 -62 168c0 73.333 22 132.666 66 177.999c42.667 44.667 101 67 175 67c76.667 0 136.334 -27 179.001 -81zM313.999 327.002
c44 0 79.833 14.333 107.5 43s41.5 66.667 41.5 114c0 51.333 -13.5 91.833 -40.5 121.5s-62.833 44.5 -107.5 44.5c-44 0 -79.333 -14.667 -106 -44s-40 -69 -40 -119c0 -49.333 13 -88.333 39 -117s61.333 -43 106 -43z" />
    <glyph glyph-name="colon" unicode=":" horiz-adv-x="283" 
d="M198 415h-113v101h113v-101zM198 0h-113v101h113v-101z" />
    <glyph glyph-name="semicolon" unicode=";" horiz-adv-x="303" 
d="M208 415h-113v101h113v-101zM109 -143h-10v50h10c31.333 0 47 15.667 47 47v51l-58 -5v100h110v-135c0 -72 -33 -108 -99 -108z" />
    <glyph glyph-name="less" unicode="&#x3c;" 
d="M47 352l547 208v-90l-456 -167l456 -166v-90l-547 207v98z" />
    <glyph glyph-name="equal" unicode="=" 
d="M585 379h-529v80h529v-80zM585 160h-529v80h529v-80z" />
    <glyph glyph-name="greater" unicode="&#x3e;" 
d="M47 470v90l547 -208v-98l-547 -207v90l456 166z" />
    <glyph glyph-name="question" unicode="?" horiz-adv-x="609" 
d="M330 176h-87v31c0 44.667 9 81 27 109c18.667 28 50.667 55.333 96 82c62 37.333 93 81 93 131c0 39.333 -14 69.5 -42 90.5s-66.333 31.5 -115 31.5c-104.667 0 -159 -52 -163 -156h-88c4 73.333 27.167 130 69.5 170s102.833 60 181.5 60c74 0 133 -17.5 177 -52.5
s66 -83.5 66 -145.5c0 -73.333 -34.333 -132 -103 -176l-48 -31c-25.333 -16.667 -42.333 -34 -51 -52c-8.66699 -16.667 -13 -44.667 -13 -84v-8zM339 0h-103v101h103v-101z" />
    <glyph glyph-name="at" unicode="@" horiz-adv-x="1080" 
d="M549 729c137.333 0 246.333 -37.667 327 -113c79.333 -76 119 -171.667 119 -287c0 -80.667 -19 -147.667 -57 -201c-39.333 -53.333 -90 -80 -152 -80s-102.667 25.667 -122 77c-31.333 -51.333 -78.333 -77 -141 -77c-59.333 0 -106 20.667 -140 62s-51 97 -51 167
c0 68.667 17.667 123.667 53 165c35.333 40 81.333 60 138 60s101.667 -22 135 -66l4 53h74v-317c0 -18 4.66699 -32 14 -42s23 -15 41 -15c36 0 65.667 17.833 89 53.5s35 85.5 35 149.5c0 98.667 -32.667 179 -98 241c-64.667 62 -155 93 -271 93
c-117.333 0 -208.333 -33.333 -273 -100c-65.333 -67.333 -98 -159 -98 -275c0 -118 32.333 -209.667 97 -275s156 -98 274 -98c68 0 131.333 11 190 33v-79c-56.667 -19.333 -119 -29 -187 -29c-142.667 0 -255.667 39.667 -339 119c-83.333 80 -125 189.667 -125 329
c0 136 42 245.667 126 329c84 82 196.667 123 338 123zM534 112c32 0 58.332 10.665 78.999 31.998s34.334 50.333 41.001 87v95c-7.33301 34.667 -21.333 61.834 -42 81.501s-46.667 29.5 -78 29.5c-38 0 -67.167 -14 -87.5 -42s-30.5 -67.333 -30.5 -118
c0 -51.333 10.333 -91.666 31 -120.999s49.667 -44 87 -44z" />
    <glyph glyph-name="A" unicode="A" horiz-adv-x="716" 
d="M686 0h-103l-75 209h-302l-77 -209h-99l276 712h105zM335 560l-99 -270h243l-97 270l-23 74z" />
    <glyph glyph-name="B" unicode="B" horiz-adv-x="723" 
d="M512 383c90.667 -26.667 136 -85.3311 136 -175.998c0 -64.667 -20.667 -115.334 -62 -152.001s-99 -55 -173 -55h-328v712h321c65.333 0 116.5 -15.333 153.5 -46s55.5 -73.334 55.5 -128.001c0 -75.333 -34.333 -127 -103 -155zM395 631.003h-217v-221h208
c43.333 0 76.5 10 99.5 30s34.5 48.333 34.5 85c0 70.667 -41.667 106 -125 106zM178 81.0029h228c98 0 147 42 147 126c0 83.333 -49 125 -147 125h-228v-251z" />
    <glyph glyph-name="C" unicode="C" horiz-adv-x="732" 
d="M386 -17c-98.667 0 -177.001 34.666 -235.001 103.999c-58 68.667 -87 158.334 -87 269.001s29.333 199.667 88 267c58 68 135.667 102 233 102c74.667 0 139.667 -20.667 195 -62c54 -40.667 86.667 -96 98 -166h-95c-10.667 46 -33 81.667 -67 107s-76.333 38 -127 38
c-72 0 -128.333 -25.333 -169 -76s-61 -120.667 -61 -210c0 -90 20.333 -160.833 61 -212.5s97 -77.5 169 -77.5c57.333 0 103.833 16.5 139.5 49.5s57.834 80.833 66.501 143.5h92c-12 -86 -44.667 -153.5 -98 -202.5s-121 -73.5 -203 -73.5z" />
    <glyph glyph-name="D" unicode="D" horiz-adv-x="713" 
d="M85 712h257.001c101.333 0 178.833 -31 232.5 -93s80.5 -149.667 80.5 -263c0 -112 -28.333 -199.333 -85 -262s-139.334 -94 -248.001 -94h-237v712zM178.001 81h140c82 0 142.833 22.667 182.5 68s59.5 114.333 59.5 207c0 93.333 -19.5 162.5 -58.5 207.5
s-98.5 67.5 -178.5 67.5h-145v-550z" />
    <glyph glyph-name="E" unicode="E" horiz-adv-x="663" 
d="M178 326v-245h420v-81h-513v712h504v-81h-411v-224h379v-81h-379z" />
    <glyph glyph-name="F" unicode="F" horiz-adv-x="597" 
d="M572 712v-81h-394v-224h326v-81h-326v-326h-93v712h487z" />
    <glyph glyph-name="G" unicode="G" horiz-adv-x="807" 
d="M414 300l-0.00195312 81.001h308v-381h-68l-21 96c-50.667 -74.667 -128 -112 -232 -112c-98.667 0 -179.667 33.667 -243 101c-62.667 66.667 -94 157.667 -94 273c0 112.667 30.667 202.667 92 270c60.667 66.667 144.334 100 251.001 100
c80.667 0 148.667 -19.667 204 -59c54.667 -40 87.334 -94.333 98.001 -163l-90 -6c-10 47.333 -33.333 83.333 -70 108s-82.334 37 -137.001 37c-80 0 -142.167 -25.667 -186.5 -77s-66.5 -122.333 -66.5 -213c0 -86.667 21.667 -156.334 65 -209.001
c42.667 -52.667 102.334 -79 179.001 -79c60 0 109.667 17 149 51s65.333 81.667 78 143v39h-216z" />
    <glyph glyph-name="H" unicode="H" horiz-adv-x="733" 
d="M555 419v293h93v-712h-93v338h-377v-338h-93v712h93v-293h377z" />
    <glyph glyph-name="I" unicode="I" horiz-adv-x="263" 
d="M178 0h-93v712h93v-712z" />
    <glyph glyph-name="J" unicode="J" horiz-adv-x="547" 
d="M410 40c-34.667 -34.667 -85 -51.999 -151 -51.999s-117.333 18 -154 54c-36.667 34.667 -55 84 -55 148v53h93v-48c0 -82.667 39 -124 117 -124c72.667 0 109 41.333 109 124v517h93v-520c0 -66.667 -17.333 -117.334 -52 -152.001z" />
    <glyph glyph-name="K" unicode="K" horiz-adv-x="714" 
d="M684 0h-116l-270 366l-120 -117v-249h-93v712h93v-349l362 349h124l-301 -287z" />
    <glyph glyph-name="L" unicode="L" horiz-adv-x="594" 
d="M178 712v-631h371v-81h-464v712h93z" />
    <glyph glyph-name="M" unicode="M" horiz-adv-x="875" 
d="M466 168l195 544h129v-712h-85v472l2 128l-51 -127l-170 -473h-88l-184 489l-47 112l3 -129v-472h-85v712h131l202 -544l24 -71z" />
    <glyph glyph-name="N" unicode="N" horiz-adv-x="736" 
d="M563 131v581h88v-712h-106l-372 578v-578h-88v712h103z" />
    <glyph glyph-name="O" unicode="O" horiz-adv-x="801" 
d="M400 -17c-99.333 0 -180.001 35 -242.001 105c-62.667 68.667 -94 158 -94 268c0 108.667 31.333 197.334 94 266.001c62 68.667 142.667 103 242 103c100 0 181.333 -34.333 244 -103c62 -69.333 93 -158 93 -266c0 -110.667 -31 -200.334 -93 -269.001
c-63.333 -69.333 -144.666 -104 -243.999 -104zM225.999 145c44.667 -52.667 102.999 -79 174.999 -79s130.333 26.333 175 79c44 52 66 122.333 66 211c0 87.333 -22.333 156.666 -67 207.999c-44.667 52 -102.667 78 -174 78s-129.666 -26 -174.999 -78
c-44.667 -51.333 -67 -120.666 -67 -207.999c0 -88 22.333 -158.333 67 -211z" />
    <glyph glyph-name="P" unicode="P" horiz-adv-x="650" 
d="M85 712l293.001 -0.000976562c71.333 0 127.333 -17.667 168 -53s61 -85.666 61 -150.999c0 -68 -20.333 -120.167 -61 -156.5s-97.334 -54.5 -170.001 -54.5h-198v-297h-93v712zM178.001 377.999l200 0.000976562c42.667 0 76 11.167 100 33.5s36 54.166 36 95.499
c0 82.667 -47 124 -141 124h-195v-253z" />
    <glyph glyph-name="Q" unicode="Q" horiz-adv-x="800" 
d="M737 356c0 -114.667 -34 -207.001 -102 -277.001l101 -74l-47 -62l-111 89c-52.667 -32.667 -112 -49 -178 -49c-99.333 0 -180 35 -242 105c-62.667 68.667 -94 158 -94 268c0 108.667 31.333 197.334 94 266.001c62 68.667 142.667 103 242 103
c100 0 181.333 -34.333 244 -103c62 -69.333 93 -158 93 -266zM159 355.999c0 -88 22.332 -158.333 66.999 -211s103 -79 175 -79c35.333 0 69.333 7.66699 102 23l-74 51l48 63l87 -70c52 54 78 128.333 78 223c0 87.333 -22.333 156.666 -67 207.999
c-44.667 52 -102.667 78 -174 78s-129.666 -26 -174.999 -78c-44.667 -51.333 -67 -120.666 -67 -207.999z" />
    <glyph glyph-name="R" unicode="R" horiz-adv-x="716" 
d="M615 227l26.001 -227.001h-94l-21 190c-4.66699 42 -16.834 72 -36.501 90s-50.167 27 -91.5 27h-220v-307h-93v712h330c67.333 0 120.5 -16.833 159.5 -50.5s58.5 -79.5 58.5 -137.5c0 -45.333 -11.5 -83.666 -34.5 -114.999s-53.833 -52.333 -92.5 -63
c66 -13.333 102.333 -53 109 -119zM178.001 387.999h205c48.667 0 86.667 11.167 114 33.5s41 53.5 41 93.5c0 37.333 -12 66 -36 86s-58.333 30 -103 30h-221v-243z" />
    <glyph glyph-name="S" unicode="S" horiz-adv-x="668" 
d="M342 -15c-182 0 -278.997 82 -290.997 246h89c9.33301 -113.333 77.666 -170 204.999 -170c59.333 0 104.5 11.333 135.5 34s46.5 55 46.5 97c0 34 -11.5 60.833 -34.5 80.5s-61.833 35.167 -116.5 46.5l-100 21c-66.667 14 -116.667 35.5 -150 64.5s-50 69.5 -50 121.5
c0 62 22.167 111.167 66.5 147.5s106.5 54.5 186.5 54.5c79.333 0 142.166 -18.667 188.499 -56s72.166 -90.333 77.499 -159h-89c-4 45.333 -21.333 79.833 -52 103.5s-73.334 35.5 -128.001 35.5c-51.333 0 -91.166 -10.333 -119.499 -31s-42.5 -49.667 -42.5 -87
c0 -28.667 9.66699 -51.5 29 -68.5s51 -30.167 95 -39.5l125 -27c136 -28.667 204 -96 204 -202c0 -64.667 -23.5 -116.167 -70.5 -154.5s-115.167 -57.5 -204.5 -57.5z" />
    <glyph glyph-name="T" unicode="T" horiz-adv-x="639" 
d="M35 712h569v-81h-238v-631h-93v631h-238v81z" />
    <glyph glyph-name="U" unicode="U" horiz-adv-x="720" 
d="M563 47c-48.667 -42 -116.333 -63.001 -203 -63.001s-154 21 -202 63c-48.667 40.667 -73 100 -73 178v487h93v-490c0 -50 15.333 -88.333 46 -115s76 -40 136 -40s105.333 13.333 136 40s46 65 46 115v490h93v-487c0 -77.333 -24 -136.666 -72 -177.999z" />
    <glyph glyph-name="V" unicode="V" horiz-adv-x="679" 
d="M377 206l173 506h99l-255 -712h-107l-257 712h103l174 -506l35 -108z" />
    <glyph glyph-name="W" unicode="W" horiz-adv-x="955" 
d="M717 287l113 425h95l-198 -712h-89l-165 616l-164 -616h-89l-190 712h95l106 -425l35 -160l39 160l116 425h105l115 -425l38 -161z" />
    <glyph glyph-name="X" unicode="X" horiz-adv-x="682" 
d="M634 712l-241 -339l259 -373h-117l-166 262l-25 42l-28 -43l-174 -261h-112l265 373l-242 339h117l151 -231l23 -37l23 36l155 232h112z" />
    <glyph glyph-name="Y" unicode="Y" horiz-adv-x="684" 
d="M378 420l179 292h106l-270 -420v-292h-93v292l-279 420h112l183 -292l31 -53z" />
    <glyph glyph-name="Z" unicode="Z" horiz-adv-x="675" 
d="M600 638l-433 -555h448v-83h-556v90l422 539h-395v83h514v-74z" />
    <glyph glyph-name="bracketleft" unicode="[" horiz-adv-x="315" 
d="M272 -204h-187v951h187v-79h-100v-793h100v-79z" />
    <glyph glyph-name="backslash" unicode="\" horiz-adv-x="468" 
d="M428 0h-92l-296 712h92z" />
    <glyph glyph-name="bracketright" unicode="]" horiz-adv-x="315" 
d="M230 -204h-187v79h100v793h-100v79h187v-951z" />
    <glyph glyph-name="asciicircum" unicode="^" 
d="M270 712h91l198 -516h-99l-103 298c-12 32.667 -26.333 78.334 -43 137.001c-14.667 -52.667 -28.667 -98.334 -42 -137.001l-98 -298h-93z" />
    <glyph glyph-name="underscore" unicode="_" horiz-adv-x="500" 
d="M500 -154h-500v79h500v-79z" />
    <glyph glyph-name="grave" unicode="`" horiz-adv-x="500" 
d="M357 581h-81l-133 155h126z" />
    <glyph glyph-name="a" unicode="a" horiz-adv-x="570" 
d="M535 68l14.998 0.00195312v-68h-49c-55.333 0 -85 25.333 -89 76c-18 -27.333 -43.333 -49 -76 -65s-69.667 -24 -111 -24c-54 0 -96.333 13.167 -127 39.5s-46 63.166 -46 110.499c0 92 58.667 145.667 176 161l132 17c24.667 2.66699 37 15.667 37 39v22
c0 53.333 -38.667 80 -116 80c-38.667 0 -67.167 -7 -85.5 -21s-28.833 -37.667 -31.5 -71h-91c8.66699 112 80.334 168 215.001 168s202 -55 202 -165v-254c0 -16.667 3.33301 -28.334 10 -35.001s18.334 -10 35.001 -10zM241.998 58.002
c42 0 78.332 12.332 108.999 36.999s46 53.334 46 86.001v72l-154 -23c-66.667 -10 -100 -39.667 -100 -89c0 -26 8.83301 -46.333 26.5 -61s41.834 -22 72.501 -22z" />
    <glyph glyph-name="b" unicode="b" horiz-adv-x="601" 
d="M329 527c66.667 0 120.333 -23.333 161 -70s61 -109 61 -187c0 -82 -20.333 -149.333 -61 -202s-95.667 -79 -165 -79c-36 0 -68.667 8.33301 -98 25s-51.666 39 -66.999 67v-81h-80v712h92v-259c35.333 49.333 87.666 74 156.999 74zM208.999 121
c27.333 -35.333 63 -53 107 -53s79 18.667 105 56c25.333 37.333 38 86 38 146c0 57.333 -12.333 101.333 -37 132s-60 46 -106 46c-45.333 0 -81.5 -16 -108.5 -48s-40.5 -77.333 -40.5 -136c0 -60 14 -107.667 42 -143z" />
    <glyph glyph-name="c" unicode="c" horiz-adv-x="557" 
d="M289 -13c-74 0 -132.333 23.332 -175 69.999s-64 112.334 -64 197.001c0 86 21.667 153.333 65 202s103 73 179 73c60.667 0 110 -15.833 148 -47.5s61.333 -76.5 70 -134.5h-87c-14 70 -57.333 105 -130 105c-102 0 -153 -64.667 -153 -194
c0 -61.333 13.167 -109 39.5 -143s63.833 -51 112.5 -51c72.667 0 116.667 38.667 132 116h86c-9.33301 -62 -33 -109.667 -71 -143s-88.667 -50 -152 -50z" />
    <glyph glyph-name="d" unicode="d" horiz-adv-x="601" 
d="M429 454l0.000976562 258.001h92v-712h-80v82c-16 -28.667 -38.667 -51.334 -68 -68.001s-62 -25 -98 -25c-68.667 0 -123.334 26 -164.001 78c-40.667 50.667 -61 117 -61 199c0 77.333 20.667 140.333 62 189c41.333 48 95 72 161 72c68 0 120 -24.333 156 -73z
M180.001 122.001c25.333 -36 60 -54 104 -54s80 17.667 108 53s42 83 42 143c0 58.667 -13.333 104 -40 136s-62.667 48 -108 48c-46 0 -81.5 -15.833 -106.5 -47.5s-37.5 -76.5 -37.5 -134.5c0 -60.667 12.667 -108.667 38 -144z" />
    <glyph glyph-name="e" unicode="e" horiz-adv-x="579" 
d="M529 270l0.00195312 -34.001h-387c1.33301 -56 15.666 -98.833 42.999 -128.5s65 -44.5 113 -44.5c71.333 0 119 34.333 143 103l84 -10c-16 -53.333 -44.167 -94.666 -84.5 -123.999s-88.833 -44 -145.5 -44c-76.667 0 -136.334 25.333 -179.001 76
c-44 50 -66 115.333 -66 196s21.667 145.667 65 195c42.667 48.667 102 73 178 73c72.667 0 130.167 -23 172.5 -69s63.5 -109 63.5 -189zM396.002 413.999c-26 26 -60.001 39 -102.001 39c-41.333 0 -75.666 -12.667 -102.999 -38c-26.667 -26 -42.667 -63.667 -48 -113
h300c-6 48 -21.667 85.333 -47 112z" />
    <glyph glyph-name="f" unicode="f" horiz-adv-x="358" 
d="M333 635h-53c-24.667 0 -41.667 -4.66699 -51 -14s-14 -26.333 -14 -51v-58l118 4v-71l-118 4v-449h-92v449l-83 -4v71l83 -3v44c0 54 12.333 93.333 37 118s64 37 118 37h55v-77z" />
    <glyph glyph-name="g" unicode="g" horiz-adv-x="606" 
d="M440 436l0.00390625 79.999h86v-499c0 -155.333 -80.667 -233 -242 -233c-63.333 0 -113.833 12.667 -151.5 38s-59.834 63 -66.501 113h90c6.66699 -27.333 20.5 -47.166 41.5 -59.499s50.833 -18.5 89.5 -18.5c53.333 0 91.666 11.667 114.999 35s35 62 35 116v67
c-16.667 -26.667 -39.334 -47.667 -68.001 -63s-60 -23 -94 -23c-68.667 0 -123.334 26 -164.001 78c-40.667 50.667 -61 117 -61 199c0 77.333 20.667 140.333 62 189c41.333 48 95 72 161 72c36.667 0 69.667 -8 99 -24s52 -38.333 68 -67zM180.004 121.999
c25.333 -36 60 -54 104 -54s80 17.667 108 53s42 83 42 143c0 58.667 -13.333 104 -40 136s-62.667 48 -108 48c-46 0 -81.5 -15.833 -106.5 -47.5s-37.5 -76.5 -37.5 -134.5c0 -60.667 12.667 -108.667 38 -144z" />
    <glyph glyph-name="h" unicode="h" horiz-adv-x="594" 
d="M339 529c54.667 0 97.499 -15 128.499 -45s46.5 -72 46.5 -126v-358h-92v340c0 72.667 -34.333 109 -103 109c-43.333 0 -78.666 -13.5 -105.999 -40.5s-41 -67.5 -41 -121.5v-287h-92v712h92v-261c37.333 52 93 78 167 78z" />
    <glyph glyph-name="i" unicode="i" horiz-adv-x="252" 
d="M172 613h-92v99h92v-99zM172 0h-92v516h92v-516z" />
    <glyph glyph-name="j" unicode="j" horiz-adv-x="252" 
d="M172 613h-92v99h92v-99zM17 -204h-25v77h23c24.667 0 41.667 4.66699 51 14s14 26.333 14 51v578h92v-565c0 -54 -12.333 -93.333 -37 -118s-64 -37 -118 -37z" />
    <glyph glyph-name="k" unicode="k" horiz-adv-x="563" 
d="M531 0h-108l-176 269l-75 -68v-201h-92v712h92v-416l228 220h116l-206 -190z" />
    <glyph glyph-name="l" unicode="l" horiz-adv-x="252" 
d="M172 0h-92v712h92v-712z" />
    <glyph glyph-name="m" unicode="m" horiz-adv-x="866" 
d="M628 529c105.333 0 157.999 -58.333 157.999 -175v-354h-92v353c0 30 -7.66699 53.5 -23 70.5s-37.333 25.5 -66 25.5c-38 0 -68.5 -13.833 -91.5 -41.5s-34.5 -70.167 -34.5 -127.5v-280h-92v353c0 30 -7.83301 53.5 -23.5 70.5s-37.5 25.5 -65.5 25.5
c-37.333 0 -67.666 -14.5 -90.999 -43.5s-35 -72.5 -35 -130.5v-275h-92v516h88l-4 -76c35.333 59.333 87.666 89 156.999 89c72.667 0 120.334 -30 143.001 -90c34 60 88.667 90 164 90z" />
    <glyph glyph-name="n" unicode="n" horiz-adv-x="594" 
d="M339 529c54.667 0 97.499 -15 128.499 -45s46.5 -72 46.5 -126v-358h-92v340c0 72.667 -34.333 109 -103 109c-43.333 0 -78.666 -13.5 -105.999 -40.5s-41 -67.5 -41 -121.5v-287h-92v516h86v-73c37.333 57.333 95 86 173 86z" />
    <glyph glyph-name="o" unicode="o" horiz-adv-x="597" 
d="M298 -13c-74.667 0 -134.333 24.999 -179 74.999c-46 50 -69 115.333 -69 196c0 82.667 23.333 148.334 70 197.001c46 49.333 106.333 74 181 74c72.667 0 132 -24 178 -72c45.333 -49.333 68 -114.333 68 -195c0 -81.333 -23.333 -147.333 -70 -198
c-47.333 -51.333 -107 -77 -179 -77zM298.001 63.999c48.667 0 87.001 18 115.001 54s42 84 42 144c0 58.667 -13.833 105 -41.5 139s-66.167 51 -115.5 51c-48.667 0 -86.834 -17.333 -114.501 -52s-41.5 -82 -41.5 -142c0 -58.667 14 -105.667 42 -141s66 -53 114 -53z
" />
    <glyph glyph-name="p" unicode="p" horiz-adv-x="601" 
d="M329 527c66.667 0 120.333 -23.333 161 -70s61 -109 61 -187c0 -82 -20.333 -149.333 -61 -202s-95.667 -79 -165 -79c-64.667 0 -115.667 24.667 -153 74v-267h-92v720h80v-83c16 28.667 38.833 51.5 68.5 68.5s63.167 25.5 100.5 25.5zM208.999 121
c27.333 -35.333 63 -53 107 -53s79 18.667 105 56c25.333 37.333 38 86 38 146c0 57.333 -12.333 101.333 -37 132s-60 46 -106 46c-45.333 0 -81.5 -16 -108.5 -48s-40.5 -77.333 -40.5 -136c0 -60 14 -107.667 42 -143z" />
    <glyph glyph-name="q" unicode="q" horiz-adv-x="601" 
d="M441 434l0.000976562 82.001h80v-720h-92v268c-36.667 -50 -88 -75 -154 -75c-68.667 0 -123.334 26 -164.001 78c-40.667 50.667 -61 117 -61 199c0 77.333 20.667 140.333 62 189c41.333 48 95 72 161 72c37.333 0 70.833 -8.33301 100.5 -25
s52.167 -39.334 67.5 -68.001zM180.001 122.001c25.333 -36 60 -54 104 -54s80 17.667 108 53s42 83 42 143c0 58.667 -13.333 104 -40 136s-62.667 48 -108 48c-46 0 -81.5 -15.833 -106.5 -47.5s-37.5 -76.5 -37.5 -134.5c0 -60.667 12.667 -108.667 38 -144z" />
    <glyph glyph-name="r" unicode="r" horiz-adv-x="368" 
d="M334 530c10 0 16.332 -0.333008 18.999 -1v-90c-4.66699 0.666992 -15.667 1 -33 1c-37.333 0 -70.666 -14 -99.999 -42c-30 -28 -46 -66.667 -48 -116v-282h-92v516h86v-104c36 78.667 92 118 168 118z" />
    <glyph glyph-name="s" unicode="s" horiz-adv-x="505" 
d="M255 -13c-131.333 0 -202.999 58.665 -214.999 175.998h88c4.66699 -35.333 17.667 -61.166 39 -77.499s52 -24.5 92 -24.5s70.5 7 91.5 21s31.5 34 31.5 60c0 38.667 -27 63.667 -81 75l-104 22c-95.333 20 -143 66.667 -143 140c0 46.667 16.667 83.167 50 109.5
s80.666 39.5 141.999 39.5c60.667 0 109.167 -13.667 145.5 -41s57.833 -67.666 64.5 -120.999h-91c-10 59.333 -50.667 89 -122 89c-69.333 0 -104 -22.667 -104 -68c0 -18 6.16699 -32.5 18.5 -43.5s32.833 -19.5 61.5 -25.5l100 -22c52 -12 90.167 -29.833 114.5 -53.5
s36.5 -54.5 36.5 -92.5c0 -50.667 -19 -90.5 -57 -119.5s-90.667 -43.5 -158 -43.5z" />
    <glyph glyph-name="t" unicode="t" horiz-adv-x="357" 
d="M327 445l-118 4v-322c0 -19.333 3.5 -32.5 10.5 -39.5s20.167 -10.5 39.5 -10.5h67v-77h-94c-40 0 -69.167 9.16699 -87.5 27.5s-27.5 47.5 -27.5 87.5v334l-77 -4v71l77 -3v161h92v-162l118 4v-71z" />
    <glyph glyph-name="u" unicode="u" horiz-adv-x="594" 
d="M422 229l0.000976562 287h92v-516h-86v73c-37.333 -57.333 -95 -86 -173 -86c-54.667 0 -97.5 15 -128.5 45s-46.5 72 -46.5 126v358h92v-340c0 -72.667 34.333 -109 103 -109c43.333 0 78.666 13.5 105.999 40.5s41 67.5 41 121.5z" />
    <glyph glyph-name="v" unicode="v" horiz-adv-x="528" 
d="M312 218l98 298h93l-189 -516h-91l-198 516h99l103 -298l43 -139z" />
    <glyph glyph-name="w" unicode="w" horiz-adv-x="772" 
d="M567 218l85 298h95l-168 -516h-92l-73 308l-26 130l-28 -130l-78 -308h-94l-163 516h100l81 -298l31 -123l27 123l74 298h100l74 -298l25 -123z" />
    <glyph glyph-name="x" unicode="x" horiz-adv-x="564" 
d="M329 274l210 -274h-112l-144 211l-146 -211h-112l212 274l-187 242h112l121 -177l119 177h112z" />
    <glyph glyph-name="y" unicode="y" horiz-adv-x="539" 
d="M270 98l148.999 418.001h95l-240 -617c-15.333 -38.667 -33.5 -65.5 -54.5 -80.5s-50.167 -22.5 -87.5 -22.5h-57v77h48c23.333 0 40.833 4.66699 52.5 14s22.834 27.666 33.501 54.999l24 63l-208 511h100l134 -356z" />
    <glyph glyph-name="z" unicode="z" horiz-adv-x="531" 
d="M464 460l-306 -386h323v-74h-431v65l299 377h-286v74h401v-56z" />
    <glyph glyph-name="braceleft" unicode="{" horiz-adv-x="373" 
d="M330 -205h-70c-38 0 -65.667 8.66699 -83 26s-26 45 -26 83v219c0 38 -8.66699 65.667 -26 83s-45 26 -83 26v79c38 0 65.667 8.66699 83 26s26 45 26 83v218c0 38 8.66699 65.667 26 83s45 26 83 26h70v-79h-42c-18.667 0 -31.667 -3.5 -39 -10.5s-11 -19.833 -11 -38.5
v-197c0 -40.667 -9.66699 -74 -29 -100s-46.666 -42.667 -81.999 -50v-1c35.333 -7.33301 62.666 -24 81.999 -50s29 -59.333 29 -100v-198c0 -18.667 3.66699 -31.5 11 -38.5s20.333 -10.5 39 -10.5h42v-79z" />
    <glyph glyph-name="bar" unicode="|" horiz-adv-x="262" 
d="M177 -204h-92v951h92v-951z" />
    <glyph glyph-name="braceright" unicode="}" horiz-adv-x="373" 
d="M112 -205h-70v79h42c18.667 0 31.667 3.5 39 10.5s11 19.833 11 38.5v198c0 40.667 9.66699 74 29 100s46.666 42.667 81.999 50v1c-35.333 7.33301 -62.666 24 -81.999 50s-29 59.333 -29 100v197c0 18.667 -3.66699 31.5 -11 38.5s-20.333 10.5 -39 10.5h-42v79h70
c38 0 65.667 -8.66699 83 -26s26 -45 26 -83v-218c0 -38 8.66699 -65.667 26 -83s45 -26 83 -26v-79c-38 0 -65.667 -8.66699 -83 -26s-26 -45 -26 -83v-219c0 -38 -8.66699 -65.667 -26 -83s-45 -26 -83 -26z" />
    <glyph glyph-name="asciitilde" unicode="~" 
d="M142 246l-80.001 0.00292969c0 56.667 12.667 100.167 38 130.5s59.666 45.5 102.999 45.5c26 1.33301 54.833 -6.33398 86.5 -23.001s60.834 -33.334 87.501 -50.001s47 -24.334 61 -23.001c40 0 60 32 60 96h80c0 -56 -12.667 -99.333 -38 -130
s-59.666 -46 -102.999 -46c-46 0 -89.333 16.333 -130 49c-42.667 32 -77.667 48 -105 48c-40 0 -60 -32.333 -60 -97z" />
    <glyph glyph-name="uni00A0" unicode="&#xa0;" horiz-adv-x="270" 
 />
    <glyph glyph-name="exclamdown" unicode="&#xa1;" horiz-adv-x="273" 
d="M188 415h-103v101h103v-101zM183 -196h-93v205l27 339h39l27 -339v-205z" />
    <glyph glyph-name="cent" unicode="&#xa2;" 
d="M333 64c72.667 0 116.667 38.6689 132 116.002h86c-8 -54.667 -27.5 -98.334 -58.5 -131.001s-71.833 -52.334 -122.5 -59.001v-134h-79v133c-63.333 7.33301 -112.833 34 -148.5 80s-53.5 107.667 -53.5 185c0 78 17.667 140.667 53 188s85 75.333 149 84v140h79v-139
c50 -6 90.667 -24.5 122 -55.5s51 -72.5 59 -124.5h-87c-14 70 -57.333 105 -130 105c-102 0 -153 -64.667 -153 -194c0 -61.333 13.167 -109 39.5 -143s63.833 -51 112.5 -51z" />
    <glyph glyph-name="sterling" unicode="&#xa3;" 
d="M239 80l348.001 -0.000976562v-80h-534v80h10c51.333 0 94.666 14 129.999 42c34.667 28 52 62.333 52 103c0 26 -7.33301 51.333 -22 76l-170 -4v76l118 -3c-40 53.333 -60 104 -60 152c0 57.333 20.333 105.333 61 144c41.333 39.333 98 59 170 59
c70 0 125.667 -18.667 167 -56s65 -87.666 71 -150.999h-91c-4.66699 41.333 -20 72.666 -46 93.999s-59.667 32 -101 32c-44 0 -78.167 -11.833 -102.5 -35.5s-36.5 -55.5 -36.5 -95.5c0 -40.667 22 -88.667 66 -144l229 4v-76l-183 4c10.667 -22 16 -45.333 16 -70
c0 -61.333 -30.667 -111.666 -92 -150.999z" />
    <glyph glyph-name="currency" unicode="&#xa4;" 
d="M613 599l-93 -89c31.333 -43.333 47 -93.666 47 -150.999s-15.667 -107.666 -47 -150.999l93 -89l-53 -53l-89 93c-40.667 -32 -91 -48 -151 -48s-110.333 16 -151 48l-89 -93l-53 53l93 89c-31.333 43.333 -47 93.666 -47 150.999s15.667 107.666 47 150.999l-93 89
l53 53l89 -93c40.667 32 91 48 151 48s110.333 -16 151 -48l89 93zM200 235c30 -31.333 70 -47 120 -47s90 15.667 120 47s45 72.666 45 123.999s-15 92.666 -45 123.999s-70 47 -120 47s-90 -15.667 -120 -47s-45 -72.666 -45 -123.999s15 -92.666 45 -123.999z" />
    <glyph glyph-name="yen" unicode="&#xa5;" 
d="M535 712h106l-220 -342h167v-80h-217v-87h217v-80h-217v-123h-93v123h-217v80h217v87h-217v80h165l-227 342h112l183 -292l30 -50h3l29 50z" />
    <glyph glyph-name="brokenbar" unicode="&#xa6;" horiz-adv-x="262" 
d="M177 411h-92v336h92v-336zM177 -204h-92v336h92v-336z" />
    <glyph glyph-name="section" unicode="&#xa7;" horiz-adv-x="629" 
d="M565 286c0 -65.333 -31.666 -113.665 -94.999 -144.998c19.333 -27.333 29 -58.333 29 -93c0 -49.333 -17.833 -88.333 -53.5 -117s-82.834 -43 -141.501 -43s-105.334 14.667 -140.001 44s-54.667 70.666 -60 123.999h86c8 -62 47 -93 117 -93
c34.667 0 61 7.16699 79 21.5s27 34.833 27 61.5c0 44.667 -30.667 77 -92 97l-112 36c-96.667 30.667 -145 85.334 -145 164.001c0 65.333 31.667 113.666 95 144.999c-19.333 27.333 -29 58.333 -29 93c0 49.333 17.833 88.333 53.5 117s82.834 43 141.501 43
s105.334 -14.5 140.001 -43.5s54.667 -70.167 60 -123.5h-87c-7.33301 61.333 -45.333 92 -114 92c-34.667 0 -61.334 -7.16699 -80.001 -21.5s-28 -34.833 -28 -61.5c0 -44.667 30.667 -77 92 -97l112 -36c96.667 -30.667 145 -85.334 145 -164.001zM413.001 190.001
c46 14.667 69 43.999 69 87.999c0 46.667 -30.667 80 -92 100l-129 42c-15.333 4.66699 -30.333 11 -45 19c-46 -15.333 -69 -44.666 -69 -87.999c0 -46.667 30.667 -80 92 -100l129 -42c15.333 -4.66699 30.333 -11 45 -19z" />
    <glyph glyph-name="dieresis" unicode="&#xa8;" horiz-adv-x="500" 
d="M189 613h-92v99h92v-99zM403 613h-92v99h92v-99z" />
    <glyph glyph-name="copyright" unicode="&#xa9;" horiz-adv-x="881" 
d="M440 -17c-108.667 0 -198.333 35.333 -269 106c-71.333 70 -107 159 -107 267c0 108.667 35.333 198 106 268s160.667 105 270 105c110 0 200.333 -35 271 -105s106 -159.333 106 -268c0 -108 -35.333 -197 -106 -267c-70.667 -70.667 -161 -106 -271 -106zM440.001 45
c90.667 0 164.332 29.333 220.999 88c57.333 58.667 86 133 86 223s-28.667 164.667 -86 224c-57.333 58 -131 87 -221 87c-89.333 0 -162.666 -29 -219.999 -87c-58 -59.333 -87 -134 -87 -224c0 -90.667 29 -165 87 -223c56.667 -58.667 130 -88 220 -88zM440.999 172
c-50 0 -89.666 16.333 -118.999 49s-44 78 -44 136s14.667 103.333 44 136s69 49 119 49c83.333 0 133 -36.333 149 -109l-64 -11c-12 38.667 -40.333 58 -85 58c-64 0 -96 -41 -96 -123c0 -81.333 32 -122 96 -122c45.333 0 74 20 86 60l63 -11
c-16.667 -74.667 -66.334 -112 -149.001 -112z" />
    <glyph glyph-name="ordfeminine" unicode="&#xaa;" horiz-adv-x="488" 
d="M246 725c56.667 0 97.833 -10.667 123.5 -32s38.5 -53.666 38.5 -96.999v-224h-62l-8 44c-34.667 -34.667 -80 -52 -136 -52c-38.667 0 -68.667 9.66699 -90 29s-32 44.666 -32 75.999c0 30.667 10 55 30 73s48.333 28.667 85 32l137 13v16
c0 20.667 -6.66699 35.667 -20 45s-34.666 14 -63.999 14c-46.667 0 -76.334 -12 -89.001 -36l-68 24c23.333 50 75 75 155 75zM217.999 428c22 0 42.333 4.16895 61 12.502s32.167 17.166 40.5 26.499s12.5 16.666 12.5 21.999v43l-106 -10c-45.333 -4 -68 -21 -68 -51
c0 -28.667 20 -43 60 -43z" />
    <glyph glyph-name="guillemotleft" unicode="&#xab;" horiz-adv-x="690" 
d="M330 92v-102l-250 218v98l250 218v-102l-191 -165zM610 92v-102l-250 218v98l250 218v-102l-191 -165z" />
    <glyph glyph-name="logicalnot" unicode="&#xac;" 
d="M572 117h-80v199h-423v80h503v-279z" />
    <glyph glyph-name="uni00AD" unicode="&#xad;" horiz-adv-x="380" 
d="M330 208h-280v83h280v-83z" />
    <glyph glyph-name="registered" unicode="&#xae;" horiz-adv-x="617" 
d="M135 658c47.333 46 105.333 69 174 69s126.667 -23 174 -69c46.667 -46 70 -102 70 -168s-23.333 -122 -70 -168c-47.333 -46 -105.333 -69 -174 -69s-126.667 23 -174 69s-71 102 -71 168s23.667 122 71 168zM309 300c55.333 0 101.333 18.333 138 55
c37.333 37.333 56 82.333 56 135c0 53.333 -18.667 98.666 -56 135.999c-36.667 36.667 -82.667 55 -138 55c-56 0 -102.333 -18.333 -139 -55c-37.333 -37.333 -56 -82.666 -56 -135.999c0 -52.667 18.667 -97.667 56 -135c36.667 -36.667 83 -55 139 -55zM404 442
l3 -36.999c0.666992 -15.333 4.66699 -28.333 12 -39h-45c-6 8 -9.33301 21 -10 39l-2 26c-1.33301 14 -4.5 23.667 -9.5 29s-13.5 8 -25.5 8h-69v-102h-44v254h108c28 0 49.833 -6.16699 65.5 -18.5s23.5 -29.833 23.5 -52.5c0 -29.333 -12.333 -49.333 -37 -60
c18 -6.66699 28 -22.334 30 -47.001zM258 508.001h68c26.667 0 40 12 40 36s-14.667 36 -44 36h-64v-72z" />
    <glyph glyph-name="overscore" unicode="&#xaf;" horiz-adv-x="500" 
d="M410 612h-320v71h320v-71z" />
    <glyph glyph-name="degree" unicode="&#xb0;" horiz-adv-x="446" 
d="M347 428c-32.667 -32.667 -74 -49 -124 -49s-91.333 16.333 -124 49s-49 74 -49 124s16.333 91.333 49 124s74 49 124 49s91.333 -16.333 124 -49s49 -74 49 -124s-16.333 -91.333 -49 -124zM150 478c18.667 -20 43 -30.001 73 -30.001s54.667 10 74 30
c18.667 18.667 28 43.334 28 74.001s-9.5 55.667 -28.5 75s-43.5 29 -73.5 29s-54.5 -9.66699 -73.5 -29s-28.5 -44.333 -28.5 -75c0 -30 9.66699 -54.667 29 -74z" />
    <glyph glyph-name="plusminus" unicode="&#xb1;" 
d="M360 575v-165h235v-80h-235v-164h-80v164h-234v80h234v165h80zM585 0h-529v80h529v-80z" />
    <glyph glyph-name="two.sups" unicode="&#xb2;" horiz-adv-x="431" 
d="M380 372h-330c0 90 35 152 105 186l85 41c40.667 20 61 45.333 61 76c0 43.333 -27.333 65 -82 65c-29.333 0 -50 -6.5 -62 -19.5s-18.667 -33.833 -20 -62.5h-80c1.33301 47.333 15.833 84.166 43.5 110.499s67.167 39.5 118.5 39.5
c49.333 0 88.666 -11.833 117.999 -35.5s44 -56.167 44 -97.5c0 -30 -8.5 -55.667 -25.5 -77s-43.833 -40.666 -80.5 -57.999l-52 -25c-27.333 -13.333 -46.666 -25 -57.999 -35s-18.333 -23 -21 -39h236v-69z" />
    <glyph glyph-name="three.sups" unicode="&#xb3;" horiz-adv-x="445" 
d="M223 356c-54 0 -96.333 12.335 -127 37.002s-46 59.667 -46 105h80c2 -51.333 33.333 -77 94 -77s91 22.333 91 67c0 43.333 -30 65 -90 65h-39v69h39c50 0 75 19.667 75 59c0 41.333 -27.667 62 -83 62c-54.667 0 -83.334 -22.333 -86.001 -67h-80
c0 41.333 14.833 73.666 44.5 96.999s69.834 35 120.501 35s90.667 -10.833 120 -32.5s44 -50.834 44 -87.501c0 -23.333 -6 -43.333 -18 -60s-28.667 -28 -50 -34v-2c26 -7.33301 46.333 -20.333 61 -39s22 -41 22 -67c0 -38.667 -15.667 -70 -47 -94s-73 -36 -125 -36z
" />
    <glyph glyph-name="acute" unicode="&#xb4;" horiz-adv-x="500" 
d="M224 581h-81l88 155h126z" />
    <glyph glyph-name="uni00B5" unicode="&#xb5;" horiz-adv-x="594" 
d="M172 -204h-91.998v720h92v-340c0 -72.667 34.333 -109 103 -109c43.333 0 78.666 13.5 105.999 40.5s41 67.5 41 121.5v287h92v-516h-88l4 76c-37.333 -59.333 -93 -89 -167 -89c-46.667 0 -83.334 13.333 -110.001 40l-2 -2l21 -135v-94z" />
    <glyph glyph-name="paragraph" unicode="&#xb6;" horiz-adv-x="593" 
d="M319 -103h-80v463c-62.667 0 -111 15.333 -145 46s-51 74 -51 130s17 99.333 51 130s82.333 46 145 46h269v-815h-80v735h-109v-735z" />
    <glyph glyph-name="middot" unicode="&#xb7;" horiz-adv-x="359" 
d="M231 302h-103v101h103v-101z" />
    <glyph glyph-name="cedilla" unicode="&#xb8;" horiz-adv-x="500" 
d="M205 -246h-31.999v54h25c48 0 72 13.333 72 40c0 20.667 -14 31 -42 31h-42l-27 47l47 74h55l-40 -62h21c31.333 0 55.666 -7.5 72.999 -22.5s26 -36.5 26 -64.5c0 -30 -12 -53.667 -36 -71s-57.333 -26 -100 -26z" />
    <glyph glyph-name="one.sups" unicode="&#xb9;" horiz-adv-x="300" 
d="M220 372h-77v297h-103v59h35c46 0 72 17.667 78 53l3 18h64v-427z" />
    <glyph glyph-name="ordmasculine" unicode="&#xba;" horiz-adv-x="461" 
d="M231 364c-54 0 -97.665 16.999 -130.998 50.999c-33.333 33.333 -50 76.333 -50 129s16.667 96.334 50 131.001c33.333 33.333 77 50 131 50c53.333 0 96.666 -16.667 129.999 -50c33.333 -34.667 50 -78.334 50 -131.001c0 -53.333 -16.833 -96.666 -50.5 -129.999
s-76.834 -50 -129.501 -50zM231.002 427.999c32.667 0 57.833 9.83398 75.5 29.501s26.5 48.5 26.5 86.5c0 78 -34 117 -102 117c-33.333 0 -59 -9.83301 -77 -29.5s-27 -48.834 -27 -87.501c0 -38 9 -66.833 27 -86.5s43.667 -29.5 77 -29.5z" />
    <glyph glyph-name="guillemotright" unicode="&#xbb;" horiz-adv-x="690" 
d="M330 208l-250 -218v102l191 165l-191 165v102l250 -218v-98zM610 208l-250 -218v102l191 165l-191 165v102l250 -218v-98z" />
    <glyph glyph-name="onequarter" unicode="&#xbc;" horiz-adv-x="1051" 
d="M265 321h-77v297h-103v59h35c46 0 72 17.667 78 53l3 18h64v-427zM303 -15h-93l448 742h91zM890 0h-77v98l-207 -2v67l202 264h82v-271l76 2v-62l-76 2v-98zM809 337l-135 -179l139 -2v181h-4z" />
    <glyph glyph-name="onehalf" unicode="&#xbd;" horiz-adv-x="1061" 
d="M265 321h-77v297h-103v59h35c46 0 72 17.667 78 53l3 18h64v-427zM303 -15h-93l448 742h91zM975 0h-330c0 90 35 152 105 186l85 41c40.667 20 61 45.333 61 76c0 43.333 -27.333 65 -82 65c-29.333 0 -50 -6.5 -62 -19.5s-18.667 -33.833 -20 -62.5h-80
c1.33301 47.333 15.833 84.166 43.5 110.499s67.167 39.5 118.5 39.5c49.333 0 88.666 -11.833 117.999 -35.5s44 -56.167 44 -97.5c0 -30 -8.5 -55.667 -25.5 -77s-43.833 -40.666 -80.5 -57.999l-52 -25c-27.333 -13.333 -46.666 -25 -57.999 -35s-18.333 -23 -21 -39h236
v-69z" />
    <glyph glyph-name="threequarters" unicode="&#xbe;" horiz-adv-x="1146" 
d="M253 305c-54 0 -96.333 12.335 -127 37.002s-46 59.667 -46 105h80c2 -51.333 33.333 -77 94 -77s91 22.333 91 67c0 43.333 -30 65 -90 65h-39v69h39c50 0 75 19.667 75 59c0 41.333 -27.667 62 -83 62c-54.667 0 -83.334 -22.333 -86.001 -67h-80
c0 41.333 14.833 73.666 44.5 96.999s69.834 35 120.501 35s90.667 -10.833 120 -32.5s44 -50.834 44 -87.501c0 -23.333 -6 -43.333 -18 -60s-28.667 -28 -50 -34v-2c26 -7.33301 46.333 -20.333 61 -39s22 -41 22 -67c0 -38.667 -15.667 -70 -47 -94s-73 -36 -125 -36z
M403 -14.998h-93l448 742h91zM990 0.00195312h-77v98l-207 -2v67l202 264h82v-271l76 2v-62l-76 2v-98zM909 337.002l-135 -179l139 -2v181h-4z" />
    <glyph glyph-name="questiondown" unicode="&#xbf;" horiz-adv-x="609" 
d="M373 415h-103v101h103v-101zM307 -209c-74 0 -133 17.502 -177 52.502s-66 83.5 -66 145.5c0 73.333 34.333 132 103 176l48 31c24.667 16 42 33.333 52 52c8 17.333 12 45.333 12 84v8h87v-31c0 -44.667 -9 -80.667 -27 -108
c-18.667 -28.667 -50.667 -56.334 -96 -83.001c-62 -36.667 -93 -80.334 -93 -131.001c0 -39.333 14 -69.5 42 -90.5s66.333 -31.5 115 -31.5c52 0 90.667 12.5 116 37.5s40.333 64.5 45 118.5h90c-4 -73.333 -27.167 -130 -69.5 -170s-102.833 -60 -181.5 -60z" />
    <glyph glyph-name="Agrave" unicode="&#xc0;" horiz-adv-x="716" 
d="M326 932l88 -155h-81l-133 155h126zM686 0h-103l-75 209h-302l-77 -209h-99l276 712h105zM335 560l-99 -270h243l-97 270l-23 74z" />
    <glyph glyph-name="Aacute" unicode="&#xc1;" horiz-adv-x="716" 
d="M382 932h126l-133 -155h-81zM686 0h-103l-75 209h-302l-77 -209h-99l276 712h105zM335 560l-99 -270h243l-97 270l-23 74z" />
    <glyph glyph-name="Acircumflex" unicode="&#xc2;" horiz-adv-x="716" 
d="M428 777l-70 100l-70 -100h-96l118 155h96l118 -155h-96zM686 0h-103l-75 209h-302l-77 -209h-99l276 712h105zM335 560l-99 -270h243l-97 270l-23 74z" />
    <glyph glyph-name="Atilde" unicode="&#xc3;" horiz-adv-x="716" 
d="M281 875c-15.333 0 -26.334 -6.33301 -33.001 -19s-10.667 -34 -12 -64h-70c0 50.667 10.167 88.834 30.5 114.501s48.166 38.5 83.499 38.5c39.333 0 70 -13.667 92 -41c21.333 -28 42.333 -42 63 -42c15.333 0 26.333 6.33301 33 19s10.667 34 12 64h70
c0 -50.667 -10.167 -88.834 -30.5 -114.501s-48.166 -38.5 -83.499 -38.5c-39.333 0 -69.666 14 -90.999 42c-22 27.333 -43.333 41 -64 41zM685.999 0h-103l-75 209h-302l-77 -209h-99l276 712h105zM334.999 560l-99 -270h243l-97 270l-23 74z" />
    <glyph glyph-name="Adieresis" unicode="&#xc4;" horiz-adv-x="716" 
d="M205 899h92v-99h-92v99zM419 899h92v-99h-92v99zM686 0h-103l-75 209h-302l-77 -209h-99l276 712h105zM335 560l-99 -270h243l-97 270l-23 74z" />
    <glyph glyph-name="Aring" unicode="&#xc5;" horiz-adv-x="716" 
d="M686 0h-103l-75 209h-302l-77 -209h-99l259 667c-46 24.667 -69 64.667 -69 120c0 39.333 13 72.166 39 98.499s59 39.5 99 39.5s73 -13.167 99 -39.5s39 -59.166 39 -98.499c0 -54.667 -22.667 -94.667 -68 -120zM412 843c-14 13.333 -32 19.999 -54 19.999
s-39.667 -6.66699 -53 -20c-14 -14 -21 -32.667 -21 -56c0 -22.667 6.83301 -40.834 20.5 -54.501s31.5 -20.5 53.5 -20.5s39.833 6.83301 53.5 20.5s20.5 31.834 20.5 54.501s-6.66699 41.334 -20 56.001zM335 559.999l-99 -270h243l-97 270l-23 74z" />
    <glyph glyph-name="AE" unicode="&#xc6;" horiz-adv-x="1137" 
d="M652 326v-245h420v-81h-513v188h-319l-113 -188h-97l429 712h604v-81h-411v-224h379v-81h-379zM509 636l-223 -372h273v372h-50z" />
    <glyph glyph-name="Ccedilla" unicode="&#xc7;" horiz-adv-x="732" 
d="M595 259l92.001 0.000976562c-12 -84.667 -43.667 -151.334 -95 -200.001s-117 -74 -197 -76l-34 -53h21c31.333 0 55.666 -7.5 72.999 -22.5s26 -36.5 26 -64.5c0 -30 -12 -53.667 -36 -71s-57.333 -26 -100 -26h-32v54h25c48 0 72 13.333 72 40c0 20.667 -14 31 -42 31
h-42l-27 47l43 68c-86.667 11.333 -154.334 50.333 -203.001 117c-50 66.667 -75 151 -75 253c0 110.667 29.333 199.667 88 267c58 68 135.667 102 233 102c74.667 0 139.667 -20.667 195 -62c54 -40.667 86.667 -96 98 -166h-95c-10.667 46 -33 81.667 -67 107
s-76.333 38 -127 38c-72 0 -128.333 -25.333 -169 -76s-61 -120.667 -61 -210c0 -90 20.333 -160.833 61 -212.5s97 -77.5 169 -77.5c57.333 0 103.833 16.5 139.5 49.5s57.834 80.833 66.501 143.5z" />
    <glyph glyph-name="Egrave" unicode="&#xc8;" horiz-adv-x="663" 
d="M314 932l88 -155h-81l-133 155h126zM178 326v-245h420v-81h-513v712h504v-81h-411v-224h379v-81h-379z" />
    <glyph glyph-name="Eacute" unicode="&#xc9;" horiz-adv-x="663" 
d="M370 932h126l-133 -155h-81zM178 326v-245h420v-81h-513v712h504v-81h-411v-224h379v-81h-379z" />
    <glyph glyph-name="Ecircumflex" unicode="&#xca;" horiz-adv-x="663" 
d="M416 777l-70 100l-70 -100h-96l118 155h96l118 -155h-96zM178 326v-245h420v-81h-513v712h504v-81h-411v-224h379v-81h-379z" />
    <glyph glyph-name="Edieresis" unicode="&#xcb;" horiz-adv-x="663" 
d="M193 899h92v-99h-92v99zM407 899h92v-99h-92v99zM178 326v-245h420v-81h-513v712h504v-81h-411v-224h379v-81h-379z" />
    <glyph glyph-name="Igrave" unicode="&#xcc;" horiz-adv-x="263" 
d="M188 777h-81l-133 155h126zM178 0h-93v712h93v-712z" />
    <glyph glyph-name="Iacute" unicode="&#xcd;" horiz-adv-x="263" 
d="M149 777h-81l88 155h126zM178 0h-93v712h93v-712z" />
    <glyph glyph-name="Icircumflex" unicode="&#xce;" horiz-adv-x="263" 
d="M62 777h-96l118 155h96l118 -155h-96l-70 100zM178 0h-93v712h93v-712z" />
    <glyph glyph-name="Idieresis" unicode="&#xcf;" horiz-adv-x="263" 
d="M71 800h-92v99h92v-99zM285 800h-92v99h92v-99zM178 0h-93v712h93v-712z" />
    <glyph glyph-name="Eth" unicode="&#xd0;" horiz-adv-x="803" 
d="M175 712h257.001c101.333 0 178.833 -31 232.5 -93s80.5 -149.667 80.5 -263c0 -112 -28.333 -199.333 -85 -262s-139.334 -94 -248.001 -94h-237v324l-135 -5v81l135 -5v317zM268.001 81h140c82 0 142.833 22.667 182.5 68s59.5 114.333 59.5 207
c0 93.333 -19.5 162.5 -58.5 207.5s-98.5 67.5 -178.5 67.5h-145v-237l192 6v-81l-192 6v-244z" />
    <glyph glyph-name="Ntilde" unicode="&#xd1;" horiz-adv-x="736" 
d="M291 875c-15.333 0 -26.334 -6.33301 -33.001 -19s-10.667 -34 -12 -64h-70c0 50.667 10.167 88.834 30.5 114.501s48.166 38.5 83.499 38.5c39.333 0 70 -13.667 92 -41c21.333 -28 42.333 -42 63 -42c15.333 0 26.333 6.33301 33 19s10.667 34 12 64h70
c0 -50.667 -10.167 -88.834 -30.5 -114.501s-48.166 -38.5 -83.499 -38.5c-39.333 0 -69.666 14 -90.999 42c-22 27.333 -43.333 41 -64 41zM562.999 131v581h88v-712h-106l-372 578v-578h-88v712h103z" />
    <glyph glyph-name="Ograve" unicode="&#xd2;" horiz-adv-x="801" 
d="M456 777h-81l-133 155h126zM400 -17c-99.333 0 -180.001 35 -242.001 105c-62.667 68.667 -94 158 -94 268c0 108.667 31.333 197.334 94 266.001c62 68.667 142.667 103 242 103c100 0 181.333 -34.333 244 -103c62 -69.333 93 -158 93 -266
c0 -110.667 -31 -200.334 -93 -269.001c-63.333 -69.333 -144.666 -104 -243.999 -104zM225.999 145c44.667 -52.667 102.999 -79 174.999 -79s130.333 26.333 175 79c44 52 66 122.333 66 211c0 87.333 -22.333 156.666 -67 207.999c-44.667 52 -102.667 78 -174 78
s-129.666 -26 -174.999 -78c-44.667 -51.333 -67 -120.666 -67 -207.999c0 -88 22.333 -158.333 67 -211z" />
    <glyph glyph-name="Oacute" unicode="&#xd3;" horiz-adv-x="801" 
d="M417 777h-81l88 155h126zM400 -17c-99.333 0 -180.001 35 -242.001 105c-62.667 68.667 -94 158 -94 268c0 108.667 31.333 197.334 94 266.001c62 68.667 142.667 103 242 103c100 0 181.333 -34.333 244 -103c62 -69.333 93 -158 93 -266
c0 -110.667 -31 -200.334 -93 -269.001c-63.333 -69.333 -144.666 -104 -243.999 -104zM225.999 145c44.667 -52.667 102.999 -79 174.999 -79s130.333 26.333 175 79c44 52 66 122.333 66 211c0 87.333 -22.333 156.666 -67 207.999c-44.667 52 -102.667 78 -174 78
s-129.666 -26 -174.999 -78c-44.667 -51.333 -67 -120.666 -67 -207.999c0 -88 22.333 -158.333 67 -211z" />
    <glyph glyph-name="Ocircumflex" unicode="&#xd4;" horiz-adv-x="801" 
d="M330 777h-96l118 155h96l118 -155h-96l-70 100zM400 -17c-99.333 0 -180.001 35 -242.001 105c-62.667 68.667 -94 158 -94 268c0 108.667 31.333 197.334 94 266.001c62 68.667 142.667 103 242 103c100 0 181.333 -34.333 244 -103c62 -69.333 93 -158 93 -266
c0 -110.667 -31 -200.334 -93 -269.001c-63.333 -69.333 -144.666 -104 -243.999 -104zM225.999 145c44.667 -52.667 102.999 -79 174.999 -79s130.333 26.333 175 79c44 52 66 122.333 66 211c0 87.333 -22.333 156.666 -67 207.999c-44.667 52 -102.667 78 -174 78
s-129.666 -26 -174.999 -78c-44.667 -51.333 -67 -120.666 -67 -207.999c0 -88 22.333 -158.333 67 -211z" />
    <glyph glyph-name="Otilde" unicode="&#xd5;" horiz-adv-x="801" 
d="M278 792h-70.001c0 50.667 10.167 88.834 30.5 114.501s48.166 38.5 83.499 38.5c39.333 0 70 -13.667 92 -41c21.333 -28 42.333 -42 63 -42c15.333 0 26.333 6.33301 33 19s10.667 34 12 64h70c0 -50.667 -10.167 -88.834 -30.5 -114.501s-48.166 -38.5 -83.499 -38.5
c-39.333 0 -69.666 14 -90.999 42c-22 27.333 -43.333 41 -64 41c-15.333 0 -26.333 -6.33301 -33 -19s-10.667 -34 -12 -64zM399.999 -17c-99.333 0 -180.001 35 -242.001 105c-62.667 68.667 -94 158 -94 268c0 108.667 31.333 197.334 94 266.001
c62 68.667 142.667 103 242 103c100 0 181.333 -34.333 244 -103c62 -69.333 93 -158 93 -266c0 -110.667 -31 -200.334 -93 -269.001c-63.333 -69.333 -144.666 -104 -243.999 -104zM225.998 145c44.667 -52.667 102.999 -79 174.999 -79s130.333 26.333 175 79
c44 52 66 122.333 66 211c0 87.333 -22.333 156.666 -67 207.999c-44.667 52 -102.667 78 -174 78s-129.666 -26 -174.999 -78c-44.667 -51.333 -67 -120.666 -67 -207.999c0 -88 22.333 -158.333 67 -211z" />
    <glyph glyph-name="Odieresis" unicode="&#xd6;" horiz-adv-x="801" 
d="M339 800h-92v99h92v-99zM553 800h-92v99h92v-99zM400 -17c-99.333 0 -180.001 35 -242.001 105c-62.667 68.667 -94 158 -94 268c0 108.667 31.333 197.334 94 266.001c62 68.667 142.667 103 242 103c100 0 181.333 -34.333 244 -103c62 -69.333 93 -158 93 -266
c0 -110.667 -31 -200.334 -93 -269.001c-63.333 -69.333 -144.666 -104 -243.999 -104zM225.999 145c44.667 -52.667 102.999 -79 174.999 -79s130.333 26.333 175 79c44 52 66 122.333 66 211c0 87.333 -22.333 156.666 -67 207.999c-44.667 52 -102.667 78 -174 78
s-129.666 -26 -174.999 -78c-44.667 -51.333 -67 -120.666 -67 -207.999c0 -88 22.333 -158.333 67 -211z" />
    <glyph glyph-name="multiply" unicode="&#xd7;" 
d="M320 257l-204 -204l-52 53l204 204l-204 203l52 53l204 -204l204 204l53 -52l-204 -204l204 -205l-53 -52z" />
    <glyph glyph-name="Oslash" unicode="&#xd8;" horiz-adv-x="801" 
d="M687 725l50 -43l-73 -85c48.667 -66.667 73 -147 73 -241c0 -110.667 -31 -200.334 -93 -269.001c-63.333 -69.333 -144.666 -104 -243.999 -104c-80.667 0 -149.334 23.333 -206.001 70l-59 -68l-50 43l62 72c-55.333 68.667 -83 154 -83 256
c0 108.667 31.333 197.334 94 266.001c62 68.667 142.667 103 242 103c86.667 0 159.667 -26.333 219 -79zM159 356c0 -73.333 16.332 -135.334 48.999 -186.001l353 409c-42.667 42 -96 63 -160 63c-71.333 0 -129.666 -26 -174.999 -78
c-44.667 -51.333 -67 -120.666 -67 -207.999zM641.999 355.999c0 67.333 -13.333 123.667 -40 169l-351 -405c40.667 -36 90.667 -54 150 -54c72 0 130.333 26.333 175 79c44 52 66 122.333 66 211z" />
    <glyph glyph-name="Ugrave" unicode="&#xd9;" horiz-adv-x="720" 
d="M416 777h-81l-133 155h126zM563 47c-48.667 -42 -116.333 -63.001 -203 -63.001s-154 21 -202 63c-48.667 40.667 -73 100 -73 178v487h93v-490c0 -50 15.333 -88.333 46 -115s76 -40 136 -40s105.333 13.333 136 40s46 65 46 115v490h93v-487
c0 -77.333 -24 -136.666 -72 -177.999z" />
    <glyph glyph-name="Uacute" unicode="&#xda;" horiz-adv-x="720" 
d="M377 777h-81l88 155h126zM563 47c-48.667 -42 -116.333 -63.001 -203 -63.001s-154 21 -202 63c-48.667 40.667 -73 100 -73 178v487h93v-490c0 -50 15.333 -88.333 46 -115s76 -40 136 -40s105.333 13.333 136 40s46 65 46 115v490h93v-487
c0 -77.333 -24 -136.666 -72 -177.999z" />
    <glyph glyph-name="Ucircumflex" unicode="&#xdb;" horiz-adv-x="720" 
d="M290 777h-96l118 155h96l118 -155h-96l-70 100zM563 47c-48.667 -42 -116.333 -63.001 -203 -63.001s-154 21 -202 63c-48.667 40.667 -73 100 -73 178v487h93v-490c0 -50 15.333 -88.333 46 -115s76 -40 136 -40s105.333 13.333 136 40s46 65 46 115v490h93v-487
c0 -77.333 -24 -136.666 -72 -177.999z" />
    <glyph glyph-name="Udieresis" unicode="&#xdc;" horiz-adv-x="720" 
d="M299 800h-92v99h92v-99zM513 800h-92v99h92v-99zM563 47c-48.667 -42 -116.333 -63.001 -203 -63.001s-154 21 -202 63c-48.667 40.667 -73 100 -73 178v487h93v-490c0 -50 15.333 -88.333 46 -115s76 -40 136 -40s105.333 13.333 136 40s46 65 46 115v490h93v-487
c0 -77.333 -24 -136.666 -72 -177.999z" />
    <glyph glyph-name="Yacute" unicode="&#xdd;" horiz-adv-x="684" 
d="M366 932h126l-133 -155h-81zM378 420l179 292h106l-270 -420v-292h-93v292l-279 420h112l183 -292l31 -53z" />
    <glyph glyph-name="Thorn" unicode="&#xde;" horiz-adv-x="650" 
d="M178 580l199.999 -0.000976562c72.667 0 129 -17.667 169 -53s60 -85.666 60 -150.999c0 -66 -20.167 -117.667 -60.5 -155s-97.166 -56 -170.499 -56h-198v-165h-93v712h93v-132zM177.999 245.999l200 -0.000976562c44 0 77.667 11.333 101 34s35 54.334 35 95.001
c0 82.667 -47 124 -141 124h-195v-253z" />
    <glyph glyph-name="germandbls" unicode="&#xdf;" horiz-adv-x="605" 
d="M172 0l-92.001 0.00292969v512c0 142 73 213 219 213c70 0 123.833 -16.333 161.5 -49s56.5 -75.334 56.5 -128.001c0 -73.333 -33.667 -124 -101 -152v-2c92.667 -28 139 -89 139 -183c0 -66 -22.333 -117.667 -67 -155s-106 -56 -184 -56h-53v77h62
c48.667 0 85.834 11.667 111.501 35s38.5 56.666 38.5 99.999c0 44 -13.167 77.5 -39.5 100.5s-64.5 34.5 -114.5 34.5h-58v77h45c39.333 0 70.5 10.167 93.5 30.5s34.5 48.166 34.5 83.499c0 34 -11 60.833 -33 80.5s-53.667 29.5 -95 29.5
c-82.667 0 -124 -38.667 -124 -116v-532z" />
    <glyph glyph-name="agrave" unicode="&#xe0;" horiz-adv-x="570" 
d="M256 736l88 -155h-81l-133 155h126zM535 68l14.998 0.00195312v-68h-49c-55.333 0 -85 25.333 -89 76c-18 -27.333 -43.333 -49 -76 -65s-69.667 -24 -111 -24c-54 0 -96.333 13.167 -127 39.5s-46 63.166 -46 110.499c0 92 58.667 145.667 176 161l132 17
c24.667 2.66699 37 15.667 37 39v22c0 53.333 -38.667 80 -116 80c-38.667 0 -67.167 -7 -85.5 -21s-28.833 -37.667 -31.5 -71h-91c8.66699 112 80.334 168 215.001 168s202 -55 202 -165v-254c0 -16.667 3.33301 -28.334 10 -35.001s18.334 -10 35.001 -10z
M241.998 58.002c42 0 78.332 12.332 108.999 36.999s46 53.334 46 86.001v72l-154 -23c-66.667 -10 -100 -39.667 -100 -89c0 -26 8.83301 -46.333 26.5 -61s41.834 -22 72.501 -22z" />
    <glyph glyph-name="aacute" unicode="&#xe1;" horiz-adv-x="570" 
d="M312 736h126l-133 -155h-81zM535 68l14.998 0.00195312v-68h-49c-55.333 0 -85 25.333 -89 76c-18 -27.333 -43.333 -49 -76 -65s-69.667 -24 -111 -24c-54 0 -96.333 13.167 -127 39.5s-46 63.166 -46 110.499c0 92 58.667 145.667 176 161l132 17
c24.667 2.66699 37 15.667 37 39v22c0 53.333 -38.667 80 -116 80c-38.667 0 -67.167 -7 -85.5 -21s-28.833 -37.667 -31.5 -71h-91c8.66699 112 80.334 168 215.001 168s202 -55 202 -165v-254c0 -16.667 3.33301 -28.334 10 -35.001s18.334 -10 35.001 -10z
M241.998 58.002c42 0 78.332 12.332 108.999 36.999s46 53.334 46 86.001v72l-154 -23c-66.667 -10 -100 -39.667 -100 -89c0 -26 8.83301 -46.333 26.5 -61s41.834 -22 72.501 -22z" />
    <glyph glyph-name="acircumflex" unicode="&#xe2;" horiz-adv-x="570" 
d="M358 581l-70 100l-70 -100h-96l118 155h96l118 -155h-96zM535 68l14.998 0.00195312v-68h-49c-55.333 0 -85 25.333 -89 76c-18 -27.333 -43.333 -49 -76 -65s-69.667 -24 -111 -24c-54 0 -96.333 13.167 -127 39.5s-46 63.166 -46 110.499c0 92 58.667 145.667 176 161
l132 17c24.667 2.66699 37 15.667 37 39v22c0 53.333 -38.667 80 -116 80c-38.667 0 -67.167 -7 -85.5 -21s-28.833 -37.667 -31.5 -71h-91c8.66699 112 80.334 168 215.001 168s202 -55 202 -165v-254c0 -16.667 3.33301 -28.334 10 -35.001s18.334 -10 35.001 -10z
M241.998 58.002c42 0 78.332 12.332 108.999 36.999s46 53.334 46 86.001v72l-154 -23c-66.667 -10 -100 -39.667 -100 -89c0 -26 8.83301 -46.333 26.5 -61s41.834 -22 72.501 -22z" />
    <glyph glyph-name="atilde" unicode="&#xe3;" horiz-adv-x="570" 
d="M211 679c-15.333 0 -26.334 -6.33301 -33.001 -19s-10.667 -34 -12 -64h-70c0 50.667 10.167 88.834 30.5 114.501s48.166 38.5 83.499 38.5c39.333 0 70 -13.667 92 -41c21.333 -28 42.333 -42 63 -42c15.333 0 26.333 6.33301 33 19s10.667 34 12 64h70
c0 -50.667 -10.167 -88.834 -30.5 -114.501s-48.166 -38.5 -83.499 -38.5c-39.333 0 -69.666 14 -90.999 42c-22 27.333 -43.333 41 -64 41zM534.999 68l14.998 0.00195312v-68h-49c-55.333 0 -85 25.333 -89 76c-18 -27.333 -43.333 -49 -76 -65s-69.667 -24 -111 -24
c-54 0 -96.333 13.167 -127 39.5s-46 63.166 -46 110.499c0 92 58.667 145.667 176 161l132 17c24.667 2.66699 37 15.667 37 39v22c0 53.333 -38.667 80 -116 80c-38.667 0 -67.167 -7 -85.5 -21s-28.833 -37.667 -31.5 -71h-91c8.66699 112 80.334 168 215.001 168
s202 -55 202 -165v-254c0 -16.667 3.33301 -28.334 10 -35.001s18.334 -10 35.001 -10zM241.997 58.002c42 0 78.332 12.332 108.999 36.999s46 53.334 46 86.001v72l-154 -23c-66.667 -10 -100 -39.667 -100 -89c0 -26 8.83301 -46.333 26.5 -61s41.834 -22 72.501 -22z
" />
    <glyph glyph-name="adieresis" unicode="&#xe4;" horiz-adv-x="570" 
d="M135 712h92v-99h-92v99zM349 712h92v-99h-92v99zM535 68l14.998 0.00195312v-68h-49c-55.333 0 -85 25.333 -89 76c-18 -27.333 -43.333 -49 -76 -65s-69.667 -24 -111 -24c-54 0 -96.333 13.167 -127 39.5s-46 63.166 -46 110.499c0 92 58.667 145.667 176 161l132 17
c24.667 2.66699 37 15.667 37 39v22c0 53.333 -38.667 80 -116 80c-38.667 0 -67.167 -7 -85.5 -21s-28.833 -37.667 -31.5 -71h-91c8.66699 112 80.334 168 215.001 168s202 -55 202 -165v-254c0 -16.667 3.33301 -28.334 10 -35.001s18.334 -10 35.001 -10z
M241.998 58.002c42 0 78.332 12.332 108.999 36.999s46 53.334 46 86.001v72l-154 -23c-66.667 -10 -100 -39.667 -100 -89c0 -26 8.83301 -46.333 26.5 -61s41.834 -22 72.501 -22z" />
    <glyph glyph-name="aring" unicode="&#xe5;" horiz-adv-x="570" 
d="M387 625c-26 -26 -59 -39 -99 -39s-73 13 -99 39s-39 58.667 -39 98s13 72.333 39 99c26 26 59 39 99 39s73 -13 99 -39c26 -26.667 39 -59.667 39 -99s-13 -72 -39 -98zM342 779c-14 13.333 -32 19.999 -54 19.999s-39.667 -6.66699 -53 -20
c-14 -14 -21 -32.667 -21 -56c0 -22.667 6.83301 -40.834 20.5 -54.501s31.5 -20.5 53.5 -20.5s39.833 6.83301 53.5 20.5s20.5 31.834 20.5 54.501s-6.66699 41.334 -20 56.001zM535 67.999l14.998 0.00195312v-68h-49c-55.333 0 -85 25.333 -89 76
c-18 -27.333 -43.333 -49 -76 -65s-69.667 -24 -111 -24c-54 0 -96.333 13.167 -127 39.5s-46 63.166 -46 110.499c0 92 58.667 145.667 176 161l132 17c24.667 2.66699 37 15.667 37 39v22c0 53.333 -38.667 80 -116 80c-38.667 0 -67.167 -7 -85.5 -21
s-28.833 -37.667 -31.5 -71h-91c8.66699 112 80.334 168 215.001 168s202 -55 202 -165v-254c0 -16.667 3.33301 -28.334 10 -35.001s18.334 -10 35.001 -10zM241.998 58.001c42 0 78.332 12.332 108.999 36.999s46 53.334 46 86.001v72l-154 -23
c-66.667 -10 -100 -39.667 -100 -89c0 -26 8.83301 -46.333 26.5 -61s41.834 -22 72.501 -22z" />
    <glyph glyph-name="ae" unicode="&#xe6;" horiz-adv-x="919" 
d="M869 270v-34.001h-387c1.33301 -56 15.666 -98.833 42.999 -128.5s65 -44.5 113 -44.5c71.333 0 119 34.333 143 103l84 -10c-16 -53.333 -44.167 -94.666 -84.5 -123.999s-88.833 -44 -145.5 -44c-90 0 -155.667 36 -197 108c-42 -72.667 -109.333 -109 -202 -109
c-56 0 -100.667 14.167 -134 42.5s-50 66.5 -50 114.5s16.5 86.333 49.5 115s81.833 43 146.5 43h148v59c0 63.333 -39.667 95 -119 95c-36 0 -63.167 -7.16699 -81.5 -21.5s-29.166 -37.833 -32.499 -70.5h-90c4.66699 55.333 25 97 61 125s86 42 150 42
c87.333 0 145 -26.667 173 -80c41.333 51.333 100 77 176 77c72.667 0 130.167 -23 172.5 -69s63.5 -109 63.5 -189zM736 413.999c-26 26 -60.001 39 -102.001 39c-41.333 0 -75.666 -12.667 -102.999 -38c-26.667 -26 -42.667 -63.667 -48 -113h300
c-6 48 -21.667 85.333 -47 112zM243.999 58.999c42.667 0 78.666 13.333 107.999 40c29.333 26 44 59.667 44 101v35l-154 -6c-66.667 -2.66699 -100 -31 -100 -85c0 -26 9.33301 -46.667 28 -62s43.334 -23 74.001 -23z" />
    <glyph glyph-name="ccedilla" unicode="&#xe7;" horiz-adv-x="557" 
d="M294 64c72.667 0 116.668 38.667 132.001 116h86c-8.66699 -58 -30 -103.5 -64 -136.5s-79 -51.5 -135 -55.5l-36 -56h21c31.333 0 55.666 -7.5 72.999 -22.5s26 -36.5 26 -64.5c0 -30 -12 -53.667 -36 -71s-57.333 -26 -100 -26h-32v54h25c48 0 72 13.333 72 40
c0 20.667 -14 31 -42 31h-42l-27 47l43 68c-65.333 6.66699 -116.333 33.167 -153 79.5s-55 108.5 -55 186.5c0 86 21.667 153.333 65 202s103 73 179 73c60.667 0 110 -15.833 148 -47.5s61.333 -76.5 70 -134.5h-87c-14 70 -57.333 105 -130 105
c-102 0 -153 -64.667 -153 -194c0 -61.333 13.167 -109 39.5 -143s63.833 -51 112.5 -51z" />
    <glyph glyph-name="egrave" unicode="&#xe8;" horiz-adv-x="579" 
d="M261 736l88 -155h-81l-133 155h126zM529 270l0.00195312 -34.001h-387c1.33301 -56 15.666 -98.833 42.999 -128.5s65 -44.5 113 -44.5c71.333 0 119 34.333 143 103l84 -10c-16 -53.333 -44.167 -94.666 -84.5 -123.999s-88.833 -44 -145.5 -44
c-76.667 0 -136.334 25.333 -179.001 76c-44 50 -66 115.333 -66 196s21.667 145.667 65 195c42.667 48.667 102 73 178 73c72.667 0 130.167 -23 172.5 -69s63.5 -109 63.5 -189zM396.002 413.999c-26 26 -60.001 39 -102.001 39c-41.333 0 -75.666 -12.667 -102.999 -38
c-26.667 -26 -42.667 -63.667 -48 -113h300c-6 48 -21.667 85.333 -47 112z" />
    <glyph glyph-name="eacute" unicode="&#xe9;" horiz-adv-x="579" 
d="M317 736h126l-133 -155h-81zM529 270l0.00195312 -34.001h-387c1.33301 -56 15.666 -98.833 42.999 -128.5s65 -44.5 113 -44.5c71.333 0 119 34.333 143 103l84 -10c-16 -53.333 -44.167 -94.666 -84.5 -123.999s-88.833 -44 -145.5 -44
c-76.667 0 -136.334 25.333 -179.001 76c-44 50 -66 115.333 -66 196s21.667 145.667 65 195c42.667 48.667 102 73 178 73c72.667 0 130.167 -23 172.5 -69s63.5 -109 63.5 -189zM396.002 413.999c-26 26 -60.001 39 -102.001 39c-41.333 0 -75.666 -12.667 -102.999 -38
c-26.667 -26 -42.667 -63.667 -48 -113h300c-6 48 -21.667 85.333 -47 112z" />
    <glyph glyph-name="ecircumflex" unicode="&#xea;" horiz-adv-x="579" 
d="M363 581l-70 100l-70 -100h-96l118 155h96l118 -155h-96zM529 270l0.00195312 -34.001h-387c1.33301 -56 15.666 -98.833 42.999 -128.5s65 -44.5 113 -44.5c71.333 0 119 34.333 143 103l84 -10c-16 -53.333 -44.167 -94.666 -84.5 -123.999s-88.833 -44 -145.5 -44
c-76.667 0 -136.334 25.333 -179.001 76c-44 50 -66 115.333 -66 196s21.667 145.667 65 195c42.667 48.667 102 73 178 73c72.667 0 130.167 -23 172.5 -69s63.5 -109 63.5 -189zM396.002 413.999c-26 26 -60.001 39 -102.001 39c-41.333 0 -75.666 -12.667 -102.999 -38
c-26.667 -26 -42.667 -63.667 -48 -113h300c-6 48 -21.667 85.333 -47 112z" />
    <glyph glyph-name="edieresis" unicode="&#xeb;" horiz-adv-x="579" 
d="M140 712h92v-99h-92v99zM354 712h92v-99h-92v99zM529 270l0.00195312 -34.001h-387c1.33301 -56 15.666 -98.833 42.999 -128.5s65 -44.5 113 -44.5c71.333 0 119 34.333 143 103l84 -10c-16 -53.333 -44.167 -94.666 -84.5 -123.999s-88.833 -44 -145.5 -44
c-76.667 0 -136.334 25.333 -179.001 76c-44 50 -66 115.333 -66 196s21.667 145.667 65 195c42.667 48.667 102 73 178 73c72.667 0 130.167 -23 172.5 -69s63.5 -109 63.5 -189zM396.002 413.999c-26 26 -60.001 39 -102.001 39c-41.333 0 -75.666 -12.667 -102.999 -38
c-26.667 -26 -42.667 -63.667 -48 -113h300c-6 48 -21.667 85.333 -47 112z" />
    <glyph glyph-name="igrave" unicode="&#xec;" horiz-adv-x="252" 
d="M182 581h-81l-133 155h126zM172 0h-92v516h92v-516z" />
    <glyph glyph-name="iacute" unicode="&#xed;" horiz-adv-x="252" 
d="M143 581h-81l88 155h126zM172 0h-92v516h92v-516z" />
    <glyph glyph-name="icircumflex" unicode="&#xee;" horiz-adv-x="252" 
d="M56 581h-96l118 155h96l118 -155h-96l-70 100zM172 0h-92v516h92v-516z" />
    <glyph glyph-name="idieresis" unicode="&#xef;" horiz-adv-x="252" 
d="M80 613h-92v99h92v-99zM264 613h-92v99h92v-99zM172 0h-92v516h92v-516z" />
    <glyph glyph-name="eth" unicode="&#xf0;" horiz-adv-x="574" 
d="M470 700l-125.999 -80.9971c120 -100.667 180 -222 180 -364c0 -84.667 -21 -151 -63 -199s-100.667 -72 -176 -72c-72 0 -129 22 -171 66c-42.667 43.333 -64 99.666 -64 168.999c0 67.333 20 123.666 60 168.999c40 44.667 93.667 67 161 67
c63.333 0 112.333 -20 147 -60c-20.667 66 -64.334 126.667 -131.001 182l-85 -70l-44 50l81 57c-24 16.667 -55.333 35.667 -94 57l36 54c42.667 -20.667 81 -43.334 115 -68.001l126 102zM434.001 252.003v15c-7.33301 34.667 -24.666 61.834 -51.999 81.501
s-60 29.5 -98 29.5c-46 0 -81.167 -14.333 -105.5 -43s-36.5 -66 -36.5 -112c0 -46.667 13 -85.334 39 -116.001s61.333 -46 106 -46c45.333 0 81.166 16.333 107.499 49s39.5 80 39.5 142z" />
    <glyph glyph-name="ntilde" unicode="&#xf1;" horiz-adv-x="594" 
d="M226 679c-15.333 0 -26.334 -6.33301 -33.001 -19s-10.667 -34 -12 -64h-70c0 50.667 10.167 88.834 30.5 114.501s48.166 38.5 83.499 38.5c39.333 0 70 -13.667 92 -41c21.333 -28 42.333 -42 63 -42c15.333 0 26.333 6.33301 33 19s10.667 34 12 64h70
c0 -50.667 -10.167 -88.834 -30.5 -114.501s-48.166 -38.5 -83.499 -38.5c-39.333 0 -69.666 14 -90.999 42c-22 27.333 -43.333 41 -64 41zM338.999 529c54.667 0 97.499 -15 128.499 -45s46.5 -72 46.5 -126v-358h-92v340c0 72.667 -34.333 109 -103 109
c-43.333 0 -78.666 -13.5 -105.999 -40.5s-41 -67.5 -41 -121.5v-287h-92v516h86v-73c37.333 57.333 95 86 173 86z" />
    <glyph glyph-name="ograve" unicode="&#xf2;" horiz-adv-x="597" 
d="M357 581h-81l-133 155h126zM298 -13c-74.667 0 -134.333 24.999 -179 74.999c-46 50 -69 115.333 -69 196c0 82.667 23.333 148.334 70 197.001c46 49.333 106.333 74 181 74c72.667 0 132 -24 178 -72c45.333 -49.333 68 -114.333 68 -195
c0 -81.333 -23.333 -147.333 -70 -198c-47.333 -51.333 -107 -77 -179 -77zM298.001 63.999c48.667 0 87.001 18 115.001 54s42 84 42 144c0 58.667 -13.833 105 -41.5 139s-66.167 51 -115.5 51c-48.667 0 -86.834 -17.333 -114.501 -52s-41.5 -82 -41.5 -142
c0 -58.667 14 -105.667 42 -141s66 -53 114 -53z" />
    <glyph glyph-name="oacute" unicode="&#xf3;" horiz-adv-x="597" 
d="M318 581h-81l88 155h126zM298 -13c-74.667 0 -134.333 24.999 -179 74.999c-46 50 -69 115.333 -69 196c0 82.667 23.333 148.334 70 197.001c46 49.333 106.333 74 181 74c72.667 0 132 -24 178 -72c45.333 -49.333 68 -114.333 68 -195
c0 -81.333 -23.333 -147.333 -70 -198c-47.333 -51.333 -107 -77 -179 -77zM298.001 63.999c48.667 0 87.001 18 115.001 54s42 84 42 144c0 58.667 -13.833 105 -41.5 139s-66.167 51 -115.5 51c-48.667 0 -86.834 -17.333 -114.501 -52s-41.5 -82 -41.5 -142
c0 -58.667 14 -105.667 42 -141s66 -53 114 -53z" />
    <glyph glyph-name="ocircumflex" unicode="&#xf4;" horiz-adv-x="597" 
d="M231 581h-96l118 155h96l118 -155h-96l-70 100zM298 -13c-74.667 0 -134.333 24.999 -179 74.999c-46 50 -69 115.333 -69 196c0 82.667 23.333 148.334 70 197.001c46 49.333 106.333 74 181 74c72.667 0 132 -24 178 -72c45.333 -49.333 68 -114.333 68 -195
c0 -81.333 -23.333 -147.333 -70 -198c-47.333 -51.333 -107 -77 -179 -77zM298.001 63.999c48.667 0 87.001 18 115.001 54s42 84 42 144c0 58.667 -13.833 105 -41.5 139s-66.167 51 -115.5 51c-48.667 0 -86.834 -17.333 -114.501 -52s-41.5 -82 -41.5 -142
c0 -58.667 14 -105.667 42 -141s66 -53 114 -53z" />
    <glyph glyph-name="otilde" unicode="&#xf5;" horiz-adv-x="597" 
d="M179 596h-70.001c0 50.667 10.167 88.834 30.5 114.501s48.166 38.5 83.499 38.5c39.333 0 70 -13.667 92 -41c21.333 -28 42.333 -42 63 -42c15.333 0 26.333 6.33301 33 19s10.667 34 12 64h70c0 -50.667 -10.167 -88.834 -30.5 -114.501s-48.166 -38.5 -83.499 -38.5
c-39.333 0 -69.666 14 -90.999 42c-22 27.333 -43.333 41 -64 41c-15.333 0 -26.333 -6.33301 -33 -19s-10.667 -34 -12 -64zM297.999 -13c-74.667 0 -134.333 24.999 -179 74.999c-46 50 -69 115.333 -69 196c0 82.667 23.333 148.334 70 197.001
c46 49.333 106.333 74 181 74c72.667 0 132 -24 178 -72c45.333 -49.333 68 -114.333 68 -195c0 -81.333 -23.333 -147.333 -70 -198c-47.333 -51.333 -107 -77 -179 -77zM298 63.999c48.667 0 87.001 18 115.001 54s42 84 42 144c0 58.667 -13.833 105 -41.5 139
s-66.167 51 -115.5 51c-48.667 0 -86.834 -17.333 -114.501 -52s-41.5 -82 -41.5 -142c0 -58.667 14 -105.667 42 -141s66 -53 114 -53z" />
    <glyph glyph-name="odieresis" unicode="&#xf6;" horiz-adv-x="597" 
d="M240 613h-92v99h92v-99zM454 613h-92v99h92v-99zM298 -13c-74.667 0 -134.333 24.999 -179 74.999c-46 50 -69 115.333 -69 196c0 82.667 23.333 148.334 70 197.001c46 49.333 106.333 74 181 74c72.667 0 132 -24 178 -72c45.333 -49.333 68 -114.333 68 -195
c0 -81.333 -23.333 -147.333 -70 -198c-47.333 -51.333 -107 -77 -179 -77zM298.001 63.999c48.667 0 87.001 18 115.001 54s42 84 42 144c0 58.667 -13.833 105 -41.5 139s-66.167 51 -115.5 51c-48.667 0 -86.834 -17.333 -114.501 -52s-41.5 -82 -41.5 -142
c0 -58.667 14 -105.667 42 -141s66 -53 114 -53z" />
    <glyph glyph-name="divide" unicode="&#xf7;" 
d="M375 449h-108v109h108v-109zM605 264h-569v90h569v-90zM375 60h-108v109h108v-109z" />
    <glyph glyph-name="oslash" unicode="&#xf8;" horiz-adv-x="597" 
d="M540 490l-45.999 -53.001c35.333 -46.667 53 -105 53 -175c0 -81.333 -23.333 -147.333 -70 -198c-47.333 -51.333 -107 -77 -179 -77c-58.667 0 -109.334 16.333 -152.001 49l-43 -49l-50 39l49 56c-34.667 47.333 -52 106 -52 176c0 82.667 23.333 148.334 70 197.001
c46 49.333 106.333 74 181 74c58 0 107.667 -15.667 149 -47l40 47zM142.001 257.999c0 -41.333 7 -76.667 21 -106l232 268c-25.333 21.333 -57.666 32 -96.999 32c-48.667 0 -86.834 -17.333 -114.501 -52s-41.5 -82 -41.5 -142zM298.001 63.998
c48.667 0 87 18.001 115 54.001s42 84 42 144c0 41.333 -7 76.666 -21 105.999l-234 -269c27.333 -23.333 60 -35 98 -35z" />
    <glyph glyph-name="ugrave" unicode="&#xf9;" horiz-adv-x="594" 
d="M265 736l88 -155h-81l-133 155h126zM422 229l0.000976562 287h92v-516h-86v73c-37.333 -57.333 -95 -86 -173 -86c-54.667 0 -97.5 15 -128.5 45s-46.5 72 -46.5 126v358h92v-340c0 -72.667 34.333 -109 103 -109c43.333 0 78.666 13.5 105.999 40.5s41 67.5 41 121.5z
" />
    <glyph glyph-name="uacute" unicode="&#xfa;" horiz-adv-x="594" 
d="M321 736h126l-133 -155h-81zM422 229l0.000976562 287h92v-516h-86v73c-37.333 -57.333 -95 -86 -173 -86c-54.667 0 -97.5 15 -128.5 45s-46.5 72 -46.5 126v358h92v-340c0 -72.667 34.333 -109 103 -109c43.333 0 78.666 13.5 105.999 40.5s41 67.5 41 121.5z" />
    <glyph glyph-name="ucircumflex" unicode="&#xfb;" horiz-adv-x="594" 
d="M367 581l-70 100l-70 -100h-96l118 155h96l118 -155h-96zM422 229l0.000976562 287h92v-516h-86v73c-37.333 -57.333 -95 -86 -173 -86c-54.667 0 -97.5 15 -128.5 45s-46.5 72 -46.5 126v358h92v-340c0 -72.667 34.333 -109 103 -109c43.333 0 78.666 13.5 105.999 40.5
s41 67.5 41 121.5z" />
    <glyph glyph-name="udieresis" unicode="&#xfc;" horiz-adv-x="594" 
d="M144 712h92v-99h-92v99zM358 712h92v-99h-92v99zM422 229l0.000976562 287h92v-516h-86v73c-37.333 -57.333 -95 -86 -173 -86c-54.667 0 -97.5 15 -128.5 45s-46.5 72 -46.5 126v358h92v-340c0 -72.667 34.333 -109 103 -109c43.333 0 78.666 13.5 105.999 40.5
s41 67.5 41 121.5z" />
    <glyph glyph-name="yacute" unicode="&#xfd;" horiz-adv-x="539" 
d="M294 736h126l-133 -155h-81zM270 98l148.999 418.001h95l-240 -617c-15.333 -38.667 -33.5 -65.5 -54.5 -80.5s-50.167 -22.5 -87.5 -22.5h-57v77h48c23.333 0 40.833 4.66699 52.5 14s22.834 27.666 33.501 54.999l24 63l-208 511h100l134 -356z" />
    <glyph glyph-name="thorn" unicode="&#xfe;" horiz-adv-x="601" 
d="M329 527c66.667 0 120.334 -23.333 161.001 -70s61 -109 61 -187c0 -82 -20.333 -149.333 -61 -202s-95.667 -79 -165 -79c-64.667 0 -115.667 24.667 -153 74v-267h-92v916h92v-259c35.333 49.333 87.666 74 156.999 74zM209 121c27.333 -35.333 63 -53 107 -53
s79 18.667 105 56c25.333 37.333 38 86 38 146c0 57.333 -12.333 101.333 -37 132s-60 46 -106 46c-45.333 0 -81.5 -16 -108.5 -48s-40.5 -77.333 -40.5 -136c0 -60 14 -107.667 42 -143z" />
    <glyph glyph-name="ydieresis" unicode="&#xff;" horiz-adv-x="539" 
d="M117 712h92v-99h-92v99zM331 712h92v-99h-92v99zM270 98l148.999 418.001h95l-240 -617c-15.333 -38.667 -33.5 -65.5 -54.5 -80.5s-50.167 -22.5 -87.5 -22.5h-57v77h48c23.333 0 40.833 4.66699 52.5 14s22.834 27.666 33.501 54.999l24 63l-208 511h100l134 -356z" />
    <glyph glyph-name="Amacron" unicode="&#x100;" horiz-adv-x="716" 
d="M198 879h320v-71h-320v71zM686 0h-103l-75 209h-302l-77 -209h-99l276 712h105zM335 560l-99 -270h243l-97 270l-23 74z" />
    <glyph glyph-name="amacron" unicode="&#x101;" horiz-adv-x="570" 
d="M128 683h320v-71h-320v71zM535 68l14.998 0.00195312v-68h-49c-55.333 0 -85 25.333 -89 76c-18 -27.333 -43.333 -49 -76 -65s-69.667 -24 -111 -24c-54 0 -96.333 13.167 -127 39.5s-46 63.166 -46 110.499c0 92 58.667 145.667 176 161l132 17
c24.667 2.66699 37 15.667 37 39v22c0 53.333 -38.667 80 -116 80c-38.667 0 -67.167 -7 -85.5 -21s-28.833 -37.667 -31.5 -71h-91c8.66699 112 80.334 168 215.001 168s202 -55 202 -165v-254c0 -16.667 3.33301 -28.334 10 -35.001s18.334 -10 35.001 -10z
M241.998 58.002c42 0 78.332 12.332 108.999 36.999s46 53.334 46 86.001v72l-154 -23c-66.667 -10 -100 -39.667 -100 -89c0 -26 8.83301 -46.333 26.5 -61s41.834 -22 72.501 -22z" />
    <glyph glyph-name="Abreve" unicode="&#x102;" horiz-adv-x="716" 
d="M357 779c-100.667 0 -153.667 45.667 -159 137h61c2 -51.333 35 -77 99 -77s97 25.667 99 77h61c-5.33301 -91.333 -59 -137 -161 -137zM686 0h-103l-75 209h-302l-77 -209h-99l276 712h105zM335 560l-99 -270h243l-97 270l-23 74z" />
    <glyph glyph-name="abreve" unicode="&#x103;" horiz-adv-x="570" 
d="M287 583c-100.667 0 -153.667 45.667 -159 137h61c2 -51.333 35 -77 99 -77s97 25.667 99 77h61c-5.33301 -91.333 -59 -137 -161 -137zM535 68l14.998 0.00195312v-68h-49c-55.333 0 -85 25.333 -89 76c-18 -27.333 -43.333 -49 -76 -65s-69.667 -24 -111 -24
c-54 0 -96.333 13.167 -127 39.5s-46 63.166 -46 110.499c0 92 58.667 145.667 176 161l132 17c24.667 2.66699 37 15.667 37 39v22c0 53.333 -38.667 80 -116 80c-38.667 0 -67.167 -7 -85.5 -21s-28.833 -37.667 -31.5 -71h-91c8.66699 112 80.334 168 215.001 168
s202 -55 202 -165v-254c0 -16.667 3.33301 -28.334 10 -35.001s18.334 -10 35.001 -10zM241.998 58.002c42 0 78.332 12.332 108.999 36.999s46 53.334 46 86.001v72l-154 -23c-66.667 -10 -100 -39.667 -100 -89c0 -26 8.83301 -46.333 26.5 -61s41.834 -22 72.501 -22z
" />
    <glyph glyph-name="Aogonek" unicode="&#x104;" horiz-adv-x="716" 
d="M581 -96c0 -26.667 20 -40 60 -40h32v-65h-55c-80.667 0 -121 29.333 -121 88c0 39.333 25 72.333 75 99l26 14h-15l-75 209h-302l-77 -209h-99l276 712h105l275 -712l-66 -44c-26 -16.667 -39 -34 -39 -52zM335 560l-99 -270h243l-97 270l-23 74z" />
    <glyph glyph-name="aogonek" unicode="&#x105;" horiz-adv-x="570" 
d="M550 0l-66 -43.998c-26 -16.667 -39 -34 -39 -52c0 -26.667 20 -40 60 -40h32v-65h-55c-80.667 0 -121 29.333 -121 88c0 39.333 25 72.333 75 99l32 18c-34.667 8 -53.334 32 -56.001 72c-18 -27.333 -43.333 -49 -76 -65s-69.667 -24 -111 -24
c-54 0 -96.333 13.167 -127 39.5s-46 63.166 -46 110.499c0 92 58.667 145.667 176 161l132 17c24.667 2.66699 37 15.667 37 39v23c0 52.667 -38.667 79 -116 79c-38.667 0 -67.167 -7 -85.5 -21s-28.833 -37.333 -31.5 -70h-91c9.33301 111.333 81 167 215 167
c134.667 0 202 -54.667 202 -164v-255c0 -16.667 3.33301 -28.334 10 -35.001s18.334 -10 35.001 -10h15v-68zM242 58.002c42 0 78.332 12.332 108.999 36.999s46 53.334 46 86.001v72l-154 -23c-66.667 -10 -100 -39.667 -100 -89c0 -26 8.83301 -46.333 26.5 -61
s41.834 -22 72.501 -22z" />
    <glyph glyph-name="Cacute" unicode="&#x106;" horiz-adv-x="732" 
d="M402 777h-81l88 155h126zM386 -17c-98.667 0 -177.001 34.666 -235.001 103.999c-58 68.667 -87 158.334 -87 269.001s29.333 199.667 88 267c58 68 135.667 102 233 102c74.667 0 139.667 -20.667 195 -62c54 -40.667 86.667 -96 98 -166h-95
c-10.667 46 -33 81.667 -67 107s-76.333 38 -127 38c-72 0 -128.333 -25.333 -169 -76s-61 -120.667 -61 -210c0 -90 20.333 -160.833 61 -212.5s97 -77.5 169 -77.5c57.333 0 103.833 16.5 139.5 49.5s57.834 80.833 66.501 143.5h92c-12 -86 -44.667 -153.5 -98 -202.5
s-121 -73.5 -203 -73.5z" />
    <glyph glyph-name="cacute" unicode="&#x107;" horiz-adv-x="557" 
d="M311 581h-81l88 155h126zM289 -13c-74 0 -132.333 23.332 -175 69.999s-64 112.334 -64 197.001c0 86 21.667 153.333 65 202s103 73 179 73c60.667 0 110 -15.833 148 -47.5s61.333 -76.5 70 -134.5h-87c-14 70 -57.333 105 -130 105c-102 0 -153 -64.667 -153 -194
c0 -61.333 13.167 -109 39.5 -143s63.833 -51 112.5 -51c72.667 0 116.667 38.667 132 116h86c-9.33301 -62 -33 -109.667 -71 -143s-88.667 -50 -152 -50z" />
    <glyph glyph-name="Ccircumflex" unicode="&#x108;" horiz-adv-x="732" 
d="M315 777h-96l118 155h96l118 -155h-96l-70 100zM386 -17c-98.667 0 -177.001 34.666 -235.001 103.999c-58 68.667 -87 158.334 -87 269.001s29.333 199.667 88 267c58 68 135.667 102 233 102c74.667 0 139.667 -20.667 195 -62c54 -40.667 86.667 -96 98 -166h-95
c-10.667 46 -33 81.667 -67 107s-76.333 38 -127 38c-72 0 -128.333 -25.333 -169 -76s-61 -120.667 -61 -210c0 -90 20.333 -160.833 61 -212.5s97 -77.5 169 -77.5c57.333 0 103.833 16.5 139.5 49.5s57.834 80.833 66.501 143.5h92c-12 -86 -44.667 -153.5 -98 -202.5
s-121 -73.5 -203 -73.5z" />
    <glyph glyph-name="ccircumflex" unicode="&#x109;" horiz-adv-x="557" 
d="M224 581h-96l118 155h96l118 -155h-96l-70 100zM289 -13c-74 0 -132.333 23.332 -175 69.999s-64 112.334 -64 197.001c0 86 21.667 153.333 65 202s103 73 179 73c60.667 0 110 -15.833 148 -47.5s61.333 -76.5 70 -134.5h-87c-14 70 -57.333 105 -130 105
c-102 0 -153 -64.667 -153 -194c0 -61.333 13.167 -109 39.5 -143s63.833 -51 112.5 -51c72.667 0 116.667 38.667 132 116h86c-9.33301 -62 -33 -109.667 -71 -143s-88.667 -50 -152 -50z" />
    <glyph glyph-name="Cdotaccent" unicode="&#x10a;" horiz-adv-x="732" 
d="M431 800h-92v99h92v-99zM386 -17c-98.667 0 -177.001 34.666 -235.001 103.999c-58 68.667 -87 158.334 -87 269.001s29.333 199.667 88 267c58 68 135.667 102 233 102c74.667 0 139.667 -20.667 195 -62c54 -40.667 86.667 -96 98 -166h-95
c-10.667 46 -33 81.667 -67 107s-76.333 38 -127 38c-72 0 -128.333 -25.333 -169 -76s-61 -120.667 -61 -210c0 -90 20.333 -160.833 61 -212.5s97 -77.5 169 -77.5c57.333 0 103.833 16.5 139.5 49.5s57.834 80.833 66.501 143.5h92c-12 -86 -44.667 -153.5 -98 -202.5
s-121 -73.5 -203 -73.5z" />
    <glyph glyph-name="cdotaccent" unicode="&#x10b;" horiz-adv-x="557" 
d="M340 613h-92v99h92v-99zM289 -13c-74 0 -132.333 23.332 -175 69.999s-64 112.334 -64 197.001c0 86 21.667 153.333 65 202s103 73 179 73c60.667 0 110 -15.833 148 -47.5s61.333 -76.5 70 -134.5h-87c-14 70 -57.333 105 -130 105c-102 0 -153 -64.667 -153 -194
c0 -61.333 13.167 -109 39.5 -143s63.833 -51 112.5 -51c72.667 0 116.667 38.667 132 116h86c-9.33301 -62 -33 -109.667 -71 -143s-88.667 -50 -152 -50z" />
    <glyph glyph-name="Ccaron" unicode="&#x10c;" horiz-adv-x="732" 
d="M433 790h-96l-118 155h96l70 -100l70 100h96zM386 -17c-98.667 0 -177.001 34.666 -235.001 103.999c-58 68.667 -87 158.334 -87 269.001s29.333 199.667 88 267c58 68 135.667 102 233 102c74.667 0 139.667 -20.667 195 -62c54 -40.667 86.667 -96 98 -166h-95
c-10.667 46 -33 81.667 -67 107s-76.333 38 -127 38c-72 0 -128.333 -25.333 -169 -76s-61 -120.667 -61 -210c0 -90 20.333 -160.833 61 -212.5s97 -77.5 169 -77.5c57.333 0 103.833 16.5 139.5 49.5s57.834 80.833 66.501 143.5h92c-12 -86 -44.667 -153.5 -98 -202.5
s-121 -73.5 -203 -73.5z" />
    <glyph glyph-name="ccaron" unicode="&#x10d;" horiz-adv-x="557" 
d="M342 581h-96l-118 155h96l70 -100l70 100h96zM289 -13c-74 0 -132.333 23.332 -175 69.999s-64 112.334 -64 197.001c0 86 21.667 153.333 65 202s103 73 179 73c60.667 0 110 -15.833 148 -47.5s61.333 -76.5 70 -134.5h-87c-14 70 -57.333 105 -130 105
c-102 0 -153 -64.667 -153 -194c0 -61.333 13.167 -109 39.5 -143s63.833 -51 112.5 -51c72.667 0 116.667 38.667 132 116h86c-9.33301 -62 -33 -109.667 -71 -143s-88.667 -50 -152 -50z" />
    <glyph glyph-name="Dcaron" unicode="&#x10e;" horiz-adv-x="713" 
d="M513 945l-118 -155h-96l-118 155h96l70 -100l70 100h96zM85 712h257.001c101.333 0 178.833 -31 232.5 -93s80.5 -149.667 80.5 -263c0 -112 -28.333 -199.333 -85 -262s-139.334 -94 -248.001 -94h-237v712zM178.001 81h140c82 0 142.833 22.667 182.5 68
s59.5 114.333 59.5 207c0 93.333 -19.5 162.5 -58.5 207.5s-98.5 67.5 -178.5 67.5h-145v-550z" />
    <glyph glyph-name="dcaron" unicode="&#x10f;" horiz-adv-x="776" 
d="M429 454l0.000976562 258.001h92v-712h-80v82c-16 -28.667 -38.667 -51.334 -68 -68.001s-62 -25 -98 -25c-68.667 0 -123.334 26 -164.001 78c-40.667 50.667 -61 117 -61 199c0 77.333 20.667 140.333 62 189c41.333 48 95 72 161 72c68 0 120 -24.333 156 -73z
M618.001 514.001l48 198h110l-89 -198h-69zM180.001 122.001c25.333 -36 60 -54 104 -54s80 17.667 108 53s42 83 42 143c0 58.667 -13.333 104 -40 136s-62.667 48 -108 48c-46 0 -81.5 -15.833 -106.5 -47.5s-37.5 -76.5 -37.5 -134.5c0 -60.667 12.667 -108.667 38 -144z
" />
    <glyph glyph-name="Dcroat" unicode="&#x110;" horiz-adv-x="803" 
d="M175 712h257.001c101.333 0 178.833 -31 232.5 -93s80.5 -149.667 80.5 -263c0 -112 -28.333 -199.333 -85 -262s-139.334 -94 -248.001 -94h-237v324l-135 -5v81l135 -5v317zM268.001 81h140c82 0 142.833 22.667 182.5 68s59.5 114.333 59.5 207
c0 93.333 -19.5 162.5 -58.5 207.5s-98.5 67.5 -178.5 67.5h-145v-237l192 6v-81l-192 6v-244z" />
    <glyph glyph-name="dslash" unicode="&#x111;" horiz-adv-x="639" 
d="M521 660l108.001 4.00098v-71l-108 4v-597h-80v82c-16 -28.667 -38.667 -51.334 -68 -68.001s-62 -25 -98 -25c-68.667 0 -123.334 26 -164.001 78c-40.667 50.667 -61 117 -61 199c0 77.333 20.667 140.333 62 189c41.333 48 95 72 161 72c68 0 120 -24.333 156 -73v143
l-156 -4v71l156 -4v52h92v-52zM180.001 122.001c25.333 -36 60 -54 104 -54s80 17.667 108 53s42 83 42 143c0 58.667 -13.333 104 -40 136s-62.667 48 -108 48c-46 0 -81.5 -15.833 -106.5 -47.5s-37.5 -76.5 -37.5 -134.5c0 -60.667 12.667 -108.667 38 -144z" />
    <glyph glyph-name="Emacron" unicode="&#x112;" horiz-adv-x="663" 
d="M186 879h320v-71h-320v71zM178 326v-245h420v-81h-513v712h504v-81h-411v-224h379v-81h-379z" />
    <glyph glyph-name="emacron" unicode="&#x113;" horiz-adv-x="579" 
d="M133 683h320v-71h-320v71zM529 270l0.00195312 -34.001h-387c1.33301 -56 15.666 -98.833 42.999 -128.5s65 -44.5 113 -44.5c71.333 0 119 34.333 143 103l84 -10c-16 -53.333 -44.167 -94.666 -84.5 -123.999s-88.833 -44 -145.5 -44
c-76.667 0 -136.334 25.333 -179.001 76c-44 50 -66 115.333 -66 196s21.667 145.667 65 195c42.667 48.667 102 73 178 73c72.667 0 130.167 -23 172.5 -69s63.5 -109 63.5 -189zM396.002 413.999c-26 26 -60.001 39 -102.001 39c-41.333 0 -75.666 -12.667 -102.999 -38
c-26.667 -26 -42.667 -63.667 -48 -113h300c-6 48 -21.667 85.333 -47 112z" />
    <glyph glyph-name="Ebreve" unicode="&#x114;" horiz-adv-x="663" 
d="M345 779c-100.667 0 -153.667 45.667 -159 137h61c2 -51.333 35 -77 99 -77s97 25.667 99 77h61c-5.33301 -91.333 -59 -137 -161 -137zM178 326v-245h420v-81h-513v712h504v-81h-411v-224h379v-81h-379z" />
    <glyph glyph-name="ebreve" unicode="&#x115;" horiz-adv-x="579" 
d="M292 583c-100.667 0 -153.667 45.667 -159 137h61c2 -51.333 35 -77 99 -77s97 25.667 99 77h61c-5.33301 -91.333 -59 -137 -161 -137zM529 270l0.00195312 -34.001h-387c1.33301 -56 15.666 -98.833 42.999 -128.5s65 -44.5 113 -44.5c71.333 0 119 34.333 143 103
l84 -10c-16 -53.333 -44.167 -94.666 -84.5 -123.999s-88.833 -44 -145.5 -44c-76.667 0 -136.334 25.333 -179.001 76c-44 50 -66 115.333 -66 196s21.667 145.667 65 195c42.667 48.667 102 73 178 73c72.667 0 130.167 -23 172.5 -69s63.5 -109 63.5 -189z
M396.002 413.999c-26 26 -60.001 39 -102.001 39c-41.333 0 -75.666 -12.667 -102.999 -38c-26.667 -26 -42.667 -63.667 -48 -113h300c-6 48 -21.667 85.333 -47 112z" />
    <glyph glyph-name="Edotaccent" unicode="&#x116;" horiz-adv-x="663" 
d="M300 899h92v-99h-92v99zM178 326v-245h420v-81h-513v712h504v-81h-411v-224h379v-81h-379z" />
    <glyph glyph-name="edotaccent" unicode="&#x117;" horiz-adv-x="579" 
d="M247 712h92v-99h-92v99zM529 270l0.00195312 -34.001h-387c1.33301 -56 15.666 -98.833 42.999 -128.5s65 -44.5 113 -44.5c71.333 0 119 34.333 143 103l84 -10c-16 -53.333 -44.167 -94.666 -84.5 -123.999s-88.833 -44 -145.5 -44
c-76.667 0 -136.334 25.333 -179.001 76c-44 50 -66 115.333 -66 196s21.667 145.667 65 195c42.667 48.667 102 73 178 73c72.667 0 130.167 -23 172.5 -69s63.5 -109 63.5 -189zM396.002 413.999c-26 26 -60.001 39 -102.001 39c-41.333 0 -75.666 -12.667 -102.999 -38
c-26.667 -26 -42.667 -63.667 -48 -113h300c-6 48 -21.667 85.333 -47 112z" />
    <glyph glyph-name="Eogonek" unicode="&#x118;" horiz-adv-x="663" 
d="M598 0l-66 -44c-26 -16.667 -39 -34 -39 -52c0 -26.667 20 -40 60 -40h32v-65h-55c-80.667 0 -121 29.333 -121 88c0 39.333 25 72.333 75 99l26 14h-425v712h504v-81h-411v-224h379v-81h-379v-245h420v-81z" />
    <glyph glyph-name="eogonek" unicode="&#x119;" horiz-adv-x="579" 
d="M529 270l0.000976562 -34.002h-387c1.33301 -56 15.666 -98.833 42.999 -128.5s65 -44.5 113 -44.5c71.333 0 119 34.333 143 103l84 -10c-20 -66.667 -58 -114 -114 -142l-66 -44c-26 -17.333 -39 -34.666 -39 -51.999c0 -26.667 20 -40 60 -40h32v-65h-55
c-80.667 0 -121 29.333 -121 88c0 34 18.667 63 56 87c-70 4.66699 -125.667 31.667 -167 81c-40.667 48.667 -61 112.334 -61 191.001c0 80.667 21.667 145.667 65 195c42.667 48.667 102 73 178 73c72.667 0 130.167 -23 172.5 -69s63.5 -109 63.5 -189zM396.001 413.998
c-26 26 -60.001 39 -102.001 39c-41.333 0 -75.666 -12.667 -102.999 -38c-26.667 -26 -42.667 -63.667 -48 -113h300c-6 48 -21.667 85.333 -47 112z" />
    <glyph glyph-name="Ecaron" unicode="&#x11a;" horiz-adv-x="663" 
d="M512 945l-118 -155h-96l-118 155h96l70 -100l70 100h96zM178 326v-245h420v-81h-513v712h504v-81h-411v-224h379v-81h-379z" />
    <glyph glyph-name="ecaron" unicode="&#x11b;" horiz-adv-x="579" 
d="M459 736l-118 -155h-96l-118 155h96l70 -100l70 100h96zM529 270l0.00195312 -34.001h-387c1.33301 -56 15.666 -98.833 42.999 -128.5s65 -44.5 113 -44.5c71.333 0 119 34.333 143 103l84 -10c-16 -53.333 -44.167 -94.666 -84.5 -123.999s-88.833 -44 -145.5 -44
c-76.667 0 -136.334 25.333 -179.001 76c-44 50 -66 115.333 -66 196s21.667 145.667 65 195c42.667 48.667 102 73 178 73c72.667 0 130.167 -23 172.5 -69s63.5 -109 63.5 -189zM396.002 413.999c-26 26 -60.001 39 -102.001 39c-41.333 0 -75.666 -12.667 -102.999 -38
c-26.667 -26 -42.667 -63.667 -48 -113h300c-6 48 -21.667 85.333 -47 112z" />
    <glyph glyph-name="Gcircumflex" unicode="&#x11c;" horiz-adv-x="807" 
d="M477 777l-70 100l-70 -100h-96l118 155h96l118 -155h-96zM414 300l-0.00195312 81.001h308v-381h-68l-21 96c-50.667 -74.667 -128 -112 -232 -112c-98.667 0 -179.667 33.667 -243 101c-62.667 66.667 -94 157.667 -94 273c0 112.667 30.667 202.667 92 270
c60.667 66.667 144.334 100 251.001 100c80.667 0 148.667 -19.667 204 -59c54.667 -40 87.334 -94.333 98.001 -163l-90 -6c-10 47.333 -33.333 83.333 -70 108s-82.334 37 -137.001 37c-80 0 -142.167 -25.667 -186.5 -77s-66.5 -122.333 -66.5 -213
c0 -86.667 21.667 -156.334 65 -209.001c42.667 -52.667 102.334 -79 179.001 -79c60 0 109.667 17 149 51s65.333 81.667 78 143v39h-216z" />
    <glyph glyph-name="gcircumflex" unicode="&#x11d;" horiz-adv-x="606" 
d="M343 581l-70 100l-70 -100h-96l118 155h96l118 -155h-96zM440 436l0.00390625 79.999h86v-499c0 -155.333 -80.667 -233 -242 -233c-63.333 0 -113.833 12.667 -151.5 38s-59.834 63 -66.501 113h90c6.66699 -27.333 20.5 -47.166 41.5 -59.499s50.833 -18.5 89.5 -18.5
c53.333 0 91.666 11.667 114.999 35s35 62 35 116v67c-16.667 -26.667 -39.334 -47.667 -68.001 -63s-60 -23 -94 -23c-68.667 0 -123.334 26 -164.001 78c-40.667 50.667 -61 117 -61 199c0 77.333 20.667 140.333 62 189c41.333 48 95 72 161 72
c36.667 0 69.667 -8 99 -24s52 -38.333 68 -67zM180.004 121.999c25.333 -36 60 -54 104 -54s80 17.667 108 53s42 83 42 143c0 58.667 -13.333 104 -40 136s-62.667 48 -108 48c-46 0 -81.5 -15.833 -106.5 -47.5s-37.5 -76.5 -37.5 -134.5
c0 -60.667 12.667 -108.667 38 -144z" />
    <glyph glyph-name="Gbreve" unicode="&#x11e;" horiz-adv-x="807" 
d="M406 779c-100.667 0 -153.667 45.667 -159 137h61c2 -51.333 35 -77 99 -77s97 25.667 99 77h61c-5.33301 -91.333 -59 -137 -161 -137zM414 300l-0.00195312 81.001h308v-381h-68l-21 96c-50.667 -74.667 -128 -112 -232 -112c-98.667 0 -179.667 33.667 -243 101
c-62.667 66.667 -94 157.667 -94 273c0 112.667 30.667 202.667 92 270c60.667 66.667 144.334 100 251.001 100c80.667 0 148.667 -19.667 204 -59c54.667 -40 87.334 -94.333 98.001 -163l-90 -6c-10 47.333 -33.333 83.333 -70 108s-82.334 37 -137.001 37
c-80 0 -142.167 -25.667 -186.5 -77s-66.5 -122.333 -66.5 -213c0 -86.667 21.667 -156.334 65 -209.001c42.667 -52.667 102.334 -79 179.001 -79c60 0 109.667 17 149 51s65.333 81.667 78 143v39h-216z" />
    <glyph glyph-name="gbreve" unicode="&#x11f;" horiz-adv-x="606" 
d="M272 583c-100.667 0 -153.667 45.667 -159 137h61c2 -51.333 35 -77 99 -77s97 25.667 99 77h61c-5.33301 -91.333 -59 -137 -161 -137zM440 436l0.00390625 79.999h86v-499c0 -155.333 -80.667 -233 -242 -233c-63.333 0 -113.833 12.667 -151.5 38
s-59.834 63 -66.501 113h90c6.66699 -27.333 20.5 -47.166 41.5 -59.499s50.833 -18.5 89.5 -18.5c53.333 0 91.666 11.667 114.999 35s35 62 35 116v67c-16.667 -26.667 -39.334 -47.667 -68.001 -63s-60 -23 -94 -23c-68.667 0 -123.334 26 -164.001 78
c-40.667 50.667 -61 117 -61 199c0 77.333 20.667 140.333 62 189c41.333 48 95 72 161 72c36.667 0 69.667 -8 99 -24s52 -38.333 68 -67zM180.004 121.999c25.333 -36 60 -54 104 -54s80 17.667 108 53s42 83 42 143c0 58.667 -13.333 104 -40 136s-62.667 48 -108 48
c-46 0 -81.5 -15.833 -106.5 -47.5s-37.5 -76.5 -37.5 -134.5c0 -60.667 12.667 -108.667 38 -144z" />
    <glyph glyph-name="Gdotaccent" unicode="&#x120;" horiz-adv-x="807" 
d="M361 899h92v-99h-92v99zM414 300l-0.00195312 81.001h308v-381h-68l-21 96c-50.667 -74.667 -128 -112 -232 -112c-98.667 0 -179.667 33.667 -243 101c-62.667 66.667 -94 157.667 -94 273c0 112.667 30.667 202.667 92 270c60.667 66.667 144.334 100 251.001 100
c80.667 0 148.667 -19.667 204 -59c54.667 -40 87.334 -94.333 98.001 -163l-90 -6c-10 47.333 -33.333 83.333 -70 108s-82.334 37 -137.001 37c-80 0 -142.167 -25.667 -186.5 -77s-66.5 -122.333 -66.5 -213c0 -86.667 21.667 -156.334 65 -209.001
c42.667 -52.667 102.334 -79 179.001 -79c60 0 109.667 17 149 51s65.333 81.667 78 143v39h-216z" />
    <glyph glyph-name="gdotaccent" unicode="&#x121;" horiz-adv-x="606" 
d="M227 712h92v-99h-92v99zM440 436l0.00390625 79.999h86v-499c0 -155.333 -80.667 -233 -242 -233c-63.333 0 -113.833 12.667 -151.5 38s-59.834 63 -66.501 113h90c6.66699 -27.333 20.5 -47.166 41.5 -59.499s50.833 -18.5 89.5 -18.5
c53.333 0 91.666 11.667 114.999 35s35 62 35 116v67c-16.667 -26.667 -39.334 -47.667 -68.001 -63s-60 -23 -94 -23c-68.667 0 -123.334 26 -164.001 78c-40.667 50.667 -61 117 -61 199c0 77.333 20.667 140.333 62 189c41.333 48 95 72 161 72
c36.667 0 69.667 -8 99 -24s52 -38.333 68 -67zM180.004 121.999c25.333 -36 60 -54 104 -54s80 17.667 108 53s42 83 42 143c0 58.667 -13.333 104 -40 136s-62.667 48 -108 48c-46 0 -81.5 -15.833 -106.5 -47.5s-37.5 -76.5 -37.5 -134.5
c0 -60.667 12.667 -108.667 38 -144z" />
    <glyph glyph-name="uni0122" unicode="&#x122;" horiz-adv-x="807" 
d="M414 300l-0.00195312 81.001h308v-381h-68l-21 96c-50.667 -74.667 -128 -112 -232 -112c-98.667 0 -179.667 33.667 -243 101c-62.667 66.667 -94 157.667 -94 273c0 112.667 30.667 202.667 92 270c60.667 66.667 144.334 100 251.001 100
c80.667 0 148.667 -19.667 204 -59c54.667 -40 87.334 -94.333 98.001 -163l-90 -6c-10 47.333 -33.333 83.333 -70 108s-82.334 37 -137.001 37c-80 0 -142.167 -25.667 -186.5 -77s-66.5 -122.333 -66.5 -213c0 -86.667 21.667 -156.334 65 -209.001
c42.667 -52.667 102.334 -79 179.001 -79c60 0 109.667 17 149 51s65.333 81.667 78 143v39h-216zM417.998 -137.999l-72 -5v77h111v-96c0 -55.333 -25.667 -83 -77 -83h-34v39h34c25.333 0 38 12 38 36v32z" />
    <glyph glyph-name="uni0123" unicode="&#x123;" horiz-adv-x="606" 
d="M267 685l71 5v-77h-110v96c0 55.333 25.333 83 76 83h34v-39h-34c-24.667 0 -37 -12 -37 -36v-32zM440 436l0.00390625 79.999h86v-499c0 -155.333 -80.667 -233 -242 -233c-63.333 0 -113.833 12.667 -151.5 38s-59.834 63 -66.501 113h90
c6.66699 -27.333 20.5 -47.166 41.5 -59.499s50.833 -18.5 89.5 -18.5c53.333 0 91.666 11.667 114.999 35s35 62 35 116v67c-16.667 -26.667 -39.334 -47.667 -68.001 -63s-60 -23 -94 -23c-68.667 0 -123.334 26 -164.001 78c-40.667 50.667 -61 117 -61 199
c0 77.333 20.667 140.333 62 189c41.333 48 95 72 161 72c36.667 0 69.667 -8 99 -24s52 -38.333 68 -67zM180.004 121.999c25.333 -36 60 -54 104 -54s80 17.667 108 53s42 83 42 143c0 58.667 -13.333 104 -40 136s-62.667 48 -108 48c-46 0 -81.5 -15.833 -106.5 -47.5
s-37.5 -76.5 -37.5 -134.5c0 -60.667 12.667 -108.667 38 -144z" />
    <glyph glyph-name="Hcircumflex" unicode="&#x124;" horiz-adv-x="733" 
d="M437 777l-70 100l-70 -100h-96l118 155h96l118 -155h-96zM555 419v293h93v-712h-93v338h-377v-338h-93v712h93v-293h377z" />
    <glyph glyph-name="hcircumflex" unicode="&#x125;" horiz-adv-x="594" 
d="M292 777h-96l-70 100l-70 -100h-96l118 155h96zM339 529c54.667 0 97.499 -15 128.499 -45s46.5 -72 46.5 -126v-358h-92v340c0 72.667 -34.333 109 -103 109c-43.333 0 -78.666 -13.5 -105.999 -40.5s-41 -67.5 -41 -121.5v-287h-92v712h92v-261c37.333 52 93 78 167 78
z" />
    <glyph glyph-name="Hbar" unicode="&#x126;" horiz-adv-x="733" 
d="M555 589v123h93v-712h-93v305h-377v-305h-93v712h93v-123h377zM178 508v-122h377v122h-377z" />
    <glyph glyph-name="hbar" unicode="&#x127;" horiz-adv-x="634" 
d="M379 529c54.667 0 97.499 -15 128.499 -45s46.5 -72 46.5 -126v-358h-92v340c0 72.667 -34.333 109 -103 109c-43.333 0 -78.666 -13.5 -105.999 -40.5s-41 -67.5 -41 -121.5v-287h-92v597l-110 -4v71l110 -4v52h92v-52l154 4v-71l-154 4v-146c37.333 52 93 78 167 78z
" />
    <glyph glyph-name="Itilde" unicode="&#x128;" horiz-adv-x="263" 
d="M10 792h-70.001c0 50.667 10.167 88.834 30.5 114.501s48.166 38.5 83.499 38.5c39.333 0 70 -13.667 92 -41c21.333 -28 42.333 -42 63 -42c15.333 0 26.333 6.33301 33 19s10.667 34 12 64h70c0 -50.667 -10.167 -88.834 -30.5 -114.501s-48.166 -38.5 -83.499 -38.5
c-39.333 0 -69.666 14 -90.999 42c-22 27.333 -43.333 41 -64 41c-15.333 0 -26.333 -6.33301 -33 -19s-10.667 -34 -12 -64zM177.999 0h-93v712h93v-712z" />
    <glyph glyph-name="itilde" unicode="&#x129;" horiz-adv-x="252" 
d="M4 596h-70.001c0 50.667 10.167 88.834 30.5 114.501s48.166 38.5 83.499 38.5c39.333 0 70 -13.667 92 -41c21.333 -28 42.333 -42 63 -42c15.333 0 26.333 6.33301 33 19s10.667 34 12 64h70c0 -50.667 -10.167 -88.834 -30.5 -114.501s-48.166 -38.5 -83.499 -38.5
c-39.333 0 -69.666 14 -90.999 42c-22 27.333 -43.333 41 -64 41c-15.333 0 -26.333 -6.33301 -33 -19s-10.667 -34 -12 -64zM171.999 0h-92v516h92v-516z" />
    <glyph glyph-name="Imacron" unicode="&#x12a;" horiz-adv-x="263" 
d="M292 808h-320v71h320v-71zM178 0h-93v712h93v-712z" />
    <glyph glyph-name="imacron" unicode="&#x12b;" horiz-adv-x="252" 
d="M286 612h-320v71h320v-71zM172 0h-92v516h92v-516z" />
    <glyph glyph-name="Ibreve" unicode="&#x12c;" horiz-adv-x="263" 
d="M131 779c-100.667 0 -153.667 45.667 -159 137h61c2 -51.333 35 -77 99 -77s97 25.667 99 77h61c-5.33301 -91.333 -59 -137 -161 -137zM178 0h-93v712h93v-712z" />
    <glyph glyph-name="ibreve" unicode="&#x12d;" horiz-adv-x="252" 
d="M125 583c-100.667 0 -153.667 45.667 -159 137h61c2 -51.333 35 -77 99 -77s97 25.667 99 77h61c-5.33301 -91.333 -59 -137 -161 -137zM172 0h-92v516h92v-516z" />
    <glyph glyph-name="Iogonek" unicode="&#x12e;" horiz-adv-x="263" 
d="M178 712l0.000976562 -712.001l-54 -52c-18.667 -18.667 -28 -34.667 -28 -48c0 -24 16.667 -36 50 -36h32v-65h-45c-80.667 0 -121 28.333 -121 85c0 18 5.16699 34.333 15.5 49s30.166 33.334 59.499 56.001l14 11h-16v712h93z" />
    <glyph glyph-name="iogonek" unicode="&#x12f;" horiz-adv-x="252" 
d="M80 613v99h92v-99h-92zM95 0l-14.999 -0.000976562v516h92v-516l-54 -52c-18.667 -18.667 -28 -34.667 -28 -48c0 -24 16.667 -36 50 -36h32v-65h-45c-80.667 0 -121 28.333 -121 85c0 18 5.16699 34.333 15.5 49s30.166 33.334 59.499 56.001z" />
    <glyph glyph-name="Idot" unicode="&#x130;" horiz-adv-x="263" 
d="M178 800h-92v99h92v-99zM178 0h-93v712h93v-712z" />
    <glyph glyph-name="dotlessi" unicode="&#x131;" horiz-adv-x="252" 
d="M172 0h-92v516h92v-516z" />
    <glyph glyph-name="IJ" unicode="&#x132;" horiz-adv-x="805" 
d="M178 0h-93v712h93v-712zM668 40c-34.667 -34.667 -85 -51.999 -151 -51.999s-117.333 18 -154 54c-36.667 34.667 -55 84 -55 148v53h93v-48c0 -82.667 39 -124 117 -124c72.667 0 109 41.333 109 124v517h93v-520c0 -66.667 -17.333 -117.334 -52 -152.001z" />
    <glyph glyph-name="ij" unicode="&#x133;" horiz-adv-x="504" 
d="M172 613h-92v99h92v-99zM424 613h-92v99h92v-99zM172 0h-92v516h92v-516zM269 -204h-25v77h23c24.667 0 41.667 4.66699 51 14s14 26.333 14 51v578h92v-565c0 -54 -12.333 -93.333 -37 -118s-64 -37 -118 -37z" />
    <glyph glyph-name="Jcircumflex" unicode="&#x134;" horiz-adv-x="547" 
d="M346 777h-96l118 155h96l118 -155h-96l-70 100zM410 40c-34.667 -34.667 -85 -51.999 -151 -51.999s-117.333 18 -154 54c-36.667 34.667 -55 84 -55 148v53h93v-48c0 -82.667 39 -124 117 -124c72.667 0 109 41.333 109 124v517h93v-520
c0 -66.667 -17.333 -117.334 -52 -152.001z" />
    <glyph glyph-name="jcircumflex" unicode="&#x135;" horiz-adv-x="252" 
d="M58 581h-96l118 155h96l118 -155h-96l-70 100zM17 -204h-25v77h23c24.667 0 41.667 4.66699 51 14s14 26.333 14 51v578h92v-565c0 -54 -12.333 -93.333 -37 -118s-64 -37 -118 -37z" />
    <glyph glyph-name="uni0136" unicode="&#x136;" horiz-adv-x="714" 
d="M664 712l-301 -287l321 -425h-116l-270 366l-120 -117v-249h-93v712h93v-349l362 349h124zM369 -138l-72 -5v77h111v-96c0 -55.333 -25.667 -83 -77 -83h-34v39h34c25.333 0 38 12 38 36v32z" />
    <glyph glyph-name="uni0137" unicode="&#x137;" horiz-adv-x="563" 
d="M516 516l-206 -190l221 -326h-108l-176 269l-75 -68v-201h-92v712h92v-416l228 220h116zM290 -138l-72 -5v77h111v-96c0 -55.333 -25.667 -83 -77 -83h-34v39h34c25.333 0 38 12 38 36v32z" />
    <glyph glyph-name="kgreenlandic" unicode="&#x138;" horiz-adv-x="563" 
d="M531 0h-108l-177 251l-74 -70v-181h-92v516h92v-236l228 236h116l-207 -207z" />
    <glyph glyph-name="Lacute" unicode="&#x139;" horiz-adv-x="594" 
d="M179 932h126l-133 -155h-81zM178 712v-631h371v-81h-464v712h93z" />
    <glyph glyph-name="lacute" unicode="&#x13a;" horiz-adv-x="252" 
d="M143 777h-81l88 155h126zM172 0h-92v712h92v-712z" />
    <glyph glyph-name="uni013B" unicode="&#x13b;" horiz-adv-x="594" 
d="M178 712v-631h371v-81h-464v712h93zM340 -138l-72 -5v77h111v-96c0 -55.333 -25.667 -83 -77 -83h-34v39h34c25.333 0 38 12 38 36v32z" />
    <glyph glyph-name="uni013C" unicode="&#x13c;" horiz-adv-x="252" 
d="M80 712h92v-712h-92v712zM71 -143v77h111v-96c0 -55.333 -25.667 -83 -77 -83h-34v39h34c25.333 0 38 12 38 36v32z" />
    <glyph glyph-name="Lcaron" unicode="&#x13d;" horiz-adv-x="594" 
d="M178 712v-631h371v-81h-464v712h93zM364 712h110l-89 -198h-69z" />
    <glyph glyph-name="lcaron" unicode="&#x13e;" horiz-adv-x="415" 
d="M172 0h-92v712h92v-712zM326 514h-69l48 198h110z" />
    <glyph glyph-name="Ldot" unicode="&#x13f;" horiz-adv-x="594" 
d="M178 712v-631h371v-81h-464v712h93zM312 420h103v-101h-103v101z" />
    <glyph glyph-name="ldot" unicode="&#x140;" horiz-adv-x="371" 
d="M172 0h-92v712h92v-712zM346 304h-103v101h103v-101z" />
    <glyph glyph-name="Lslash" unicode="&#x141;" horiz-adv-x="704" 
d="M288 320v-239h371v-81h-464v273l-145 -76v85l145 69v361h93v-315l259 135v-85z" />
    <glyph glyph-name="lslash" unicode="&#x142;" horiz-adv-x="380" 
d="M236 443l94 54v-91l-94 -44v-362h-92v312l-94 -54v91l94 44v319h92v-269z" />
    <glyph glyph-name="Nacute" unicode="&#x143;" horiz-adv-x="736" 
d="M392 932h126l-133 -155h-81zM563 131v581h88v-712h-106l-372 578v-578h-88v712h103z" />
    <glyph glyph-name="nacute" unicode="&#x144;" horiz-adv-x="594" 
d="M327 736h126l-133 -155h-81zM339 529c54.667 0 97.499 -15 128.499 -45s46.5 -72 46.5 -126v-358h-92v340c0 72.667 -34.333 109 -103 109c-43.333 0 -78.666 -13.5 -105.999 -40.5s-41 -67.5 -41 -121.5v-287h-92v516h86v-73c37.333 57.333 95 86 173 86z" />
    <glyph glyph-name="uni0145" unicode="&#x145;" horiz-adv-x="736" 
d="M563 131v581h88v-712h-106l-372 578v-578h-88v712h103zM391 -138l-72 -5v77h111v-96c0 -55.333 -25.667 -83 -77 -83h-34v39h34c25.333 0 38 12 38 36v32z" />
    <glyph glyph-name="uni0146" unicode="&#x146;" horiz-adv-x="594" 
d="M339 529c54.667 0 97.499 -15 128.499 -45s46.5 -72 46.5 -126v-358h-92v340c0 72.667 -34.333 109 -103 109c-43.333 0 -78.666 -13.5 -105.999 -40.5s-41 -67.5 -41 -121.5v-287h-92v516h86v-73c37.333 57.333 95 86 173 86zM305.999 -138l-72 -5v77h111v-96
c0 -55.333 -25.667 -83 -77 -83h-34v39h34c25.333 0 38 12 38 36v32z" />
    <glyph glyph-name="Ncaron" unicode="&#x147;" horiz-adv-x="736" 
d="M534 945l-118 -155h-96l-118 155h96l70 -100l70 100h96zM563 131v581h88v-712h-106l-372 578v-578h-88v712h103z" />
    <glyph glyph-name="ncaron" unicode="&#x148;" horiz-adv-x="594" 
d="M469 736l-118 -155h-96l-118 155h96l70 -100l70 100h96zM339 529c54.667 0 97.499 -15 128.499 -45s46.5 -72 46.5 -126v-358h-92v340c0 72.667 -34.333 109 -103 109c-43.333 0 -78.666 -13.5 -105.999 -40.5s-41 -67.5 -41 -121.5v-287h-92v516h86v-73
c37.333 57.333 95 86 173 86z" />
    <glyph glyph-name="napostrophe" unicode="&#x149;" horiz-adv-x="789" 
d="M98 617l-58 -5v100h110v-135c0 -72 -33 -108 -99 -108h-10v50h10c31.333 0 47 15.667 47 47v51zM534 529c54.667 0 97.499 -15 128.499 -45s46.5 -72 46.5 -126v-358h-92v340c0 72.667 -34.333 109 -103 109c-43.333 0 -78.666 -13.5 -105.999 -40.5
s-41 -67.5 -41 -121.5v-287h-92v516h86v-73c37.333 57.333 95 86 173 86z" />
    <glyph glyph-name="Eng" unicode="&#x14a;" horiz-adv-x="736" 
d="M563 152v560h88v-761c0 -54.667 -11.833 -94.167 -35.5 -118.5s-62.167 -36.5 -115.5 -36.5h-35v77h33c24.667 0 41.667 4.66699 51 14s14 26.333 14 51v63l-390 581v-582h-88v712h103z" />
    <glyph glyph-name="eng" unicode="&#x14b;" horiz-adv-x="594" 
d="M339 529c54.667 0 97.499 -15 128.499 -45s46.5 -72 46.5 -126v-407c0 -54 -12.333 -93.333 -37 -118s-64 -37 -118 -37h-25v77h23c24.667 0 41.667 4.66699 51 14s14 26.333 14 51v402c0 72.667 -34.333 109 -103 109c-43.333 0 -78.666 -13.5 -105.999 -40.5
s-41 -67.5 -41 -121.5v-287h-92v516h86v-73c37.333 57.333 95 86 173 86z" />
    <glyph glyph-name="Omacron" unicode="&#x14c;" horiz-adv-x="801" 
d="M560 808h-320v71h320v-71zM400 -17c-99.333 0 -180.001 35 -242.001 105c-62.667 68.667 -94 158 -94 268c0 108.667 31.333 197.334 94 266.001c62 68.667 142.667 103 242 103c100 0 181.333 -34.333 244 -103c62 -69.333 93 -158 93 -266
c0 -110.667 -31 -200.334 -93 -269.001c-63.333 -69.333 -144.666 -104 -243.999 -104zM225.999 145c44.667 -52.667 102.999 -79 174.999 -79s130.333 26.333 175 79c44 52 66 122.333 66 211c0 87.333 -22.333 156.666 -67 207.999c-44.667 52 -102.667 78 -174 78
s-129.666 -26 -174.999 -78c-44.667 -51.333 -67 -120.666 -67 -207.999c0 -88 22.333 -158.333 67 -211z" />
    <glyph glyph-name="omacron" unicode="&#x14d;" horiz-adv-x="597" 
d="M461 612h-320v71h320v-71zM298 -13c-74.667 0 -134.333 24.999 -179 74.999c-46 50 -69 115.333 -69 196c0 82.667 23.333 148.334 70 197.001c46 49.333 106.333 74 181 74c72.667 0 132 -24 178 -72c45.333 -49.333 68 -114.333 68 -195
c0 -81.333 -23.333 -147.333 -70 -198c-47.333 -51.333 -107 -77 -179 -77zM298.001 63.999c48.667 0 87.001 18 115.001 54s42 84 42 144c0 58.667 -13.833 105 -41.5 139s-66.167 51 -115.5 51c-48.667 0 -86.834 -17.333 -114.501 -52s-41.5 -82 -41.5 -142
c0 -58.667 14 -105.667 42 -141s66 -53 114 -53z" />
    <glyph glyph-name="Obreve" unicode="&#x14e;" horiz-adv-x="801" 
d="M399 779c-100.667 0 -153.667 45.667 -159 137h61c2 -51.333 35 -77 99 -77s97 25.667 99 77h61c-5.33301 -91.333 -59 -137 -161 -137zM400 -17c-99.333 0 -180.001 35 -242.001 105c-62.667 68.667 -94 158 -94 268c0 108.667 31.333 197.334 94 266.001
c62 68.667 142.667 103 242 103c100 0 181.333 -34.333 244 -103c62 -69.333 93 -158 93 -266c0 -110.667 -31 -200.334 -93 -269.001c-63.333 -69.333 -144.666 -104 -243.999 -104zM225.999 145c44.667 -52.667 102.999 -79 174.999 -79s130.333 26.333 175 79
c44 52 66 122.333 66 211c0 87.333 -22.333 156.666 -67 207.999c-44.667 52 -102.667 78 -174 78s-129.666 -26 -174.999 -78c-44.667 -51.333 -67 -120.666 -67 -207.999c0 -88 22.333 -158.333 67 -211z" />
    <glyph glyph-name="obreve" unicode="&#x14f;" horiz-adv-x="597" 
d="M300 583c-100.667 0 -153.667 45.667 -159 137h61c2 -51.333 35 -77 99 -77s97 25.667 99 77h61c-5.33301 -91.333 -59 -137 -161 -137zM298 -13c-74.667 0 -134.333 24.999 -179 74.999c-46 50 -69 115.333 -69 196c0 82.667 23.333 148.334 70 197.001
c46 49.333 106.333 74 181 74c72.667 0 132 -24 178 -72c45.333 -49.333 68 -114.333 68 -195c0 -81.333 -23.333 -147.333 -70 -198c-47.333 -51.333 -107 -77 -179 -77zM298.001 63.999c48.667 0 87.001 18 115.001 54s42 84 42 144c0 58.667 -13.833 105 -41.5 139
s-66.167 51 -115.5 51c-48.667 0 -86.834 -17.333 -114.501 -52s-41.5 -82 -41.5 -142c0 -58.667 14 -105.667 42 -141s66 -53 114 -53z" />
    <glyph glyph-name="Ohungarumlaut" unicode="&#x150;" horiz-adv-x="801" 
d="M325 777h-79l91 161h108zM512 777h-79l91 161h108zM400 -17c-99.333 0 -180.001 35 -242.001 105c-62.667 68.667 -94 158 -94 268c0 108.667 31.333 197.334 94 266.001c62 68.667 142.667 103 242 103c100 0 181.333 -34.333 244 -103c62 -69.333 93 -158 93 -266
c0 -110.667 -31 -200.334 -93 -269.001c-63.333 -69.333 -144.666 -104 -243.999 -104zM225.999 145c44.667 -52.667 102.999 -79 174.999 -79s130.333 26.333 175 79c44 52 66 122.333 66 211c0 87.333 -22.333 156.666 -67 207.999c-44.667 52 -102.667 78 -174 78
s-129.666 -26 -174.999 -78c-44.667 -51.333 -67 -120.666 -67 -207.999c0 -88 22.333 -158.333 67 -211z" />
    <glyph glyph-name="ohungarumlaut" unicode="&#x151;" horiz-adv-x="597" 
d="M226 581h-79l91 161h108zM413 581h-79l91 161h108zM298 -13c-74.667 0 -134.333 24.999 -179 74.999c-46 50 -69 115.333 -69 196c0 82.667 23.333 148.334 70 197.001c46 49.333 106.333 74 181 74c72.667 0 132 -24 178 -72c45.333 -49.333 68 -114.333 68 -195
c0 -81.333 -23.333 -147.333 -70 -198c-47.333 -51.333 -107 -77 -179 -77zM298.001 63.999c48.667 0 87.001 18 115.001 54s42 84 42 144c0 58.667 -13.833 105 -41.5 139s-66.167 51 -115.5 51c-48.667 0 -86.834 -17.333 -114.501 -52s-41.5 -82 -41.5 -142
c0 -58.667 14 -105.667 42 -141s66 -53 114 -53z" />
    <glyph glyph-name="OE" unicode="&#x152;" horiz-adv-x="1220" 
d="M735 326l0.000976562 -245h420v-81h-513v109c-54 -84 -134.667 -126 -242 -126c-100 0 -181 35 -243 105c-62 69.333 -93 158.666 -93 267.999c0 108.667 31.333 197.334 94 266.001c62 68.667 143 103 243 103c107.333 0 187.666 -40 240.999 -120v107h504v-81h-411
v-224h379v-81h-379zM402.001 66c71.333 0 129.333 25.333 174 76c44 50.667 66 122 66 214c0 90 -22.333 160.333 -67 211c-44.667 50 -102.667 75 -174 75c-72.667 0 -131 -25.667 -175 -77c-44.667 -51.333 -67 -121 -67 -209s22.333 -158.333 67 -211
c44 -52.667 102.667 -79 176 -79z" />
    <glyph glyph-name="oe" unicode="&#x153;" horiz-adv-x="984" 
d="M934 270l0.00195312 -34.002h-387c1.33301 -56 15.666 -98.833 42.999 -128.5s65 -44.5 113 -44.5c71.333 0 119 34.333 143 103l84 -10c-16 -53.333 -44.167 -94.666 -84.5 -123.999s-88.833 -44 -145.5 -44c-90 0 -157 34.667 -201 104
c-47.333 -70 -114.333 -105 -201 -105c-74.667 0 -134.334 25 -179.001 75c-46 50 -69 115.333 -69 196c0 82.667 23.333 148.334 70 197.001c46 49.333 106.333 74 181 74c88 0 154.333 -33.333 199 -100c42.667 66 108.667 99 198 99c72.667 0 130.167 -23 172.5 -69
s63.5 -109 63.5 -189zM801.002 413.998c-26 26 -60.001 39 -102.001 39c-41.333 0 -75.666 -12.667 -102.999 -38c-26.667 -26 -42.667 -63.667 -48 -113h300c-6 48 -21.667 85.333 -47 112zM298.001 63.998c48.667 0 87.001 18 115.001 54s42 84 42 144
c0 58.667 -13.833 105 -41.5 139s-66.167 51 -115.5 51c-48.667 0 -86.834 -17.333 -114.501 -52s-41.5 -82 -41.5 -142c0 -58.667 14 -105.667 42 -141s66 -53 114 -53z" />
    <glyph glyph-name="Racute" unicode="&#x154;" horiz-adv-x="716" 
d="M377 932h126l-133 -155h-81zM615 227l26.001 -227.001h-94l-21 190c-4.66699 42 -16.834 72 -36.501 90s-50.167 27 -91.5 27h-220v-307h-93v712h330c67.333 0 120.5 -16.833 159.5 -50.5s58.5 -79.5 58.5 -137.5c0 -45.333 -11.5 -83.666 -34.5 -114.999
s-53.833 -52.333 -92.5 -63c66 -13.333 102.333 -53 109 -119zM178.001 387.999h205c48.667 0 86.667 11.167 114 33.5s41 53.5 41 93.5c0 37.333 -12 66 -36 86s-58.333 30 -103 30h-221v-243z" />
    <glyph glyph-name="racute" unicode="&#x155;" horiz-adv-x="368" 
d="M246 736h126l-133 -155h-81zM166 516l-0.000976562 -104c36 78.667 92 118 168 118c10 0 16.333 -0.333008 19 -1v-90c-4.66699 0.666992 -15.667 1 -33 1c-37.333 0 -70.666 -14 -99.999 -42c-30 -28 -46 -66.667 -48 -116v-282h-92v516h86z" />
    <glyph glyph-name="uni0156" unicode="&#x156;" horiz-adv-x="716" 
d="M615 227l26.001 -227.001h-94l-21 190c-4.66699 42 -16.834 72 -36.501 90s-50.167 27 -91.5 27h-220v-307h-93v712h330c67.333 0 120.5 -16.833 159.5 -50.5s58.5 -79.5 58.5 -137.5c0 -45.333 -11.5 -83.666 -34.5 -114.999s-53.833 -52.333 -92.5 -63
c66 -13.333 102.333 -53 109 -119zM178.001 387.999h205c48.667 0 86.667 11.167 114 33.5s41 53.5 41 93.5c0 37.333 -12 66 -36 86s-58.333 30 -103 30h-221v-243zM380.001 -138.001l-72 -5v77h111v-96c0 -55.333 -25.667 -83 -77 -83h-34v39h34c25.333 0 38 12 38 36v32z
" />
    <glyph glyph-name="uni0157" unicode="&#x157;" horiz-adv-x="368" 
d="M334 530c10 0 16.332 -0.333008 18.999 -1v-90c-4.66699 0.666992 -15.667 1 -33 1c-37.333 0 -70.666 -14 -99.999 -42c-30 -28 -46 -66.667 -48 -116v-282h-92v516h86v-104c36 78.667 92 118 168 118zM142.999 -138l-72 -5v77h111v-96c0 -55.333 -25.667 -83 -77 -83
h-34v39h34c25.333 0 38 12 38 36v32z" />
    <glyph glyph-name="Rcaron" unicode="&#x158;" horiz-adv-x="716" 
d="M519 945l-118 -155h-96l-118 155h96l70 -100l70 100h96zM615 227l26.001 -227.001h-94l-21 190c-4.66699 42 -16.834 72 -36.501 90s-50.167 27 -91.5 27h-220v-307h-93v712h330c67.333 0 120.5 -16.833 159.5 -50.5s58.5 -79.5 58.5 -137.5
c0 -45.333 -11.5 -83.666 -34.5 -114.999s-53.833 -52.333 -92.5 -63c66 -13.333 102.333 -53 109 -119zM178.001 387.999h205c48.667 0 86.667 11.167 114 33.5s41 53.5 41 93.5c0 37.333 -12 66 -36 86s-58.333 30 -103 30h-221v-243z" />
    <glyph glyph-name="rcaron" unicode="&#x159;" horiz-adv-x="368" 
d="M388 736l-118 -155h-96l-118 155h96l70 -100l70 100h96zM166 516l-0.000976562 -104c36 78.667 92 118 168 118c10 0 16.333 -0.333008 19 -1v-90c-4.66699 0.666992 -15.667 1 -33 1c-37.333 0 -70.666 -14 -99.999 -42c-30 -28 -46 -66.667 -48 -116v-282h-92v516h86z
" />
    <glyph glyph-name="Sacute" unicode="&#x15a;" horiz-adv-x="668" 
d="M346 777h-81l88 155h126zM342 -15c-182 0 -278.997 82 -290.997 246h89c9.33301 -113.333 77.666 -170 204.999 -170c59.333 0 104.5 11.333 135.5 34s46.5 55 46.5 97c0 34 -11.5 60.833 -34.5 80.5s-61.833 35.167 -116.5 46.5l-100 21
c-66.667 14 -116.667 35.5 -150 64.5s-50 69.5 -50 121.5c0 62 22.167 111.167 66.5 147.5s106.5 54.5 186.5 54.5c79.333 0 142.166 -18.667 188.499 -56s72.166 -90.333 77.499 -159h-89c-4 45.333 -21.333 79.833 -52 103.5s-73.334 35.5 -128.001 35.5
c-51.333 0 -91.166 -10.333 -119.499 -31s-42.5 -49.667 -42.5 -87c0 -28.667 9.66699 -51.5 29 -68.5s51 -30.167 95 -39.5l125 -27c136 -28.667 204 -96 204 -202c0 -64.667 -23.5 -116.167 -70.5 -154.5s-115.167 -57.5 -204.5 -57.5z" />
    <glyph glyph-name="sacute" unicode="&#x15b;" horiz-adv-x="505" 
d="M263 581h-81l88 155h126zM255 -13c-131.333 0 -202.999 58.665 -214.999 175.998h88c4.66699 -35.333 17.667 -61.166 39 -77.499s52 -24.5 92 -24.5s70.5 7 91.5 21s31.5 34 31.5 60c0 38.667 -27 63.667 -81 75l-104 22c-95.333 20 -143 66.667 -143 140
c0 46.667 16.667 83.167 50 109.5s80.666 39.5 141.999 39.5c60.667 0 109.167 -13.667 145.5 -41s57.833 -67.666 64.5 -120.999h-91c-10 59.333 -50.667 89 -122 89c-69.333 0 -104 -22.667 -104 -68c0 -18 6.16699 -32.5 18.5 -43.5s32.833 -19.5 61.5 -25.5l100 -22
c52 -12 90.167 -29.833 114.5 -53.5s36.5 -54.5 36.5 -92.5c0 -50.667 -19 -90.5 -57 -119.5s-90.667 -43.5 -158 -43.5z" />
    <glyph glyph-name="Scircumflex" unicode="&#x15c;" horiz-adv-x="668" 
d="M259 777h-96l118 155h96l118 -155h-96l-70 100zM342 -15c-182 0 -278.997 82 -290.997 246h89c9.33301 -113.333 77.666 -170 204.999 -170c59.333 0 104.5 11.333 135.5 34s46.5 55 46.5 97c0 34 -11.5 60.833 -34.5 80.5s-61.833 35.167 -116.5 46.5l-100 21
c-66.667 14 -116.667 35.5 -150 64.5s-50 69.5 -50 121.5c0 62 22.167 111.167 66.5 147.5s106.5 54.5 186.5 54.5c79.333 0 142.166 -18.667 188.499 -56s72.166 -90.333 77.499 -159h-89c-4 45.333 -21.333 79.833 -52 103.5s-73.334 35.5 -128.001 35.5
c-51.333 0 -91.166 -10.333 -119.499 -31s-42.5 -49.667 -42.5 -87c0 -28.667 9.66699 -51.5 29 -68.5s51 -30.167 95 -39.5l125 -27c136 -28.667 204 -96 204 -202c0 -64.667 -23.5 -116.167 -70.5 -154.5s-115.167 -57.5 -204.5 -57.5z" />
    <glyph glyph-name="scircumflex" unicode="&#x15d;" horiz-adv-x="505" 
d="M176 581h-96l118 155h96l118 -155h-96l-70 100zM255 -13c-131.333 0 -202.999 58.665 -214.999 175.998h88c4.66699 -35.333 17.667 -61.166 39 -77.499s52 -24.5 92 -24.5s70.5 7 91.5 21s31.5 34 31.5 60c0 38.667 -27 63.667 -81 75l-104 22
c-95.333 20 -143 66.667 -143 140c0 46.667 16.667 83.167 50 109.5s80.666 39.5 141.999 39.5c60.667 0 109.167 -13.667 145.5 -41s57.833 -67.666 64.5 -120.999h-91c-10 59.333 -50.667 89 -122 89c-69.333 0 -104 -22.667 -104 -68c0 -18 6.16699 -32.5 18.5 -43.5
s32.833 -19.5 61.5 -25.5l100 -22c52 -12 90.167 -29.833 114.5 -53.5s36.5 -54.5 36.5 -92.5c0 -50.667 -19 -90.5 -57 -119.5s-90.667 -43.5 -158 -43.5z" />
    <glyph glyph-name="Scedilla" unicode="&#x15e;" horiz-adv-x="668" 
d="M617 197c0 -60.667 -21.1631 -110 -63.4961 -148s-104.5 -59 -186.5 -63l-35 -55h21c31.333 0 55.666 -7.5 72.999 -22.5s26 -36.5 26 -64.5c0 -30 -12 -53.667 -36 -71s-57.333 -26 -100 -26h-32v54h25c48 0 72 13.333 72 40c0 20.667 -14 31 -42 31h-42l-27 47l42 67
c-162.667 8 -249.667 89.667 -261 245h89c9.33301 -113.333 77.666 -170 204.999 -170c59.333 0 104.5 11.333 135.5 34s46.5 55 46.5 97c0 34 -11.5 60.833 -34.5 80.5s-61.833 35.167 -116.5 46.5l-100 21c-66.667 14 -116.667 35.5 -150 64.5s-50 69.5 -50 121.5
c0 62 22.167 111.167 66.5 147.5s106.5 54.5 186.5 54.5c79.333 0 142.166 -18.667 188.499 -56s72.166 -90.333 77.499 -159h-89c-4 45.333 -21.333 79.833 -52 103.5s-73.334 35.5 -128.001 35.5c-51.333 0 -91.166 -10.333 -119.499 -31s-42.5 -49.667 -42.5 -87
c0 -28.667 9.66699 -51.5 29 -68.5s51 -30.167 95 -39.5l125 -27c136 -28.667 204 -96 204 -202z" />
    <glyph glyph-name="scedilla" unicode="&#x15f;" horiz-adv-x="505" 
d="M470 150c0 -47.333 -16.498 -85.1689 -49.498 -113.502s-79.167 -44.5 -138.5 -48.5l-36 -56h21c31.333 0 55.666 -7.5 72.999 -22.5s26 -36.5 26 -64.5c0 -30 -12 -53.667 -36 -71s-57.333 -26 -100 -26h-32v54h25c48 0 72 13.333 72 40c0 20.667 -14 31 -42 31h-42
l-27 47l43 68c-114 8 -176.333 66.333 -187 175h88c4.66699 -35.333 17.667 -61.166 39 -77.499s52 -24.5 92 -24.5s70.5 7 91.5 21s31.5 34 31.5 60c0 38.667 -27 63.667 -81 75l-104 22c-95.333 20 -143 66.667 -143 140c0 46.667 16.667 83.167 50 109.5
s80.666 39.5 141.999 39.5c60.667 0 109.167 -13.667 145.5 -41s57.833 -67.666 64.5 -120.999h-91c-10 59.333 -50.667 89 -122 89c-69.333 0 -104 -22.667 -104 -68c0 -18 6.16699 -32.5 18.5 -43.5s32.833 -19.5 61.5 -25.5l100 -22c52 -12 90.167 -29.833 114.5 -53.5
s36.5 -54.5 36.5 -92.5z" />
    <glyph glyph-name="Scaron" unicode="&#x160;" horiz-adv-x="668" 
d="M377 790h-96l-118 155h96l70 -100l70 100h96zM342 -15c-182 0 -278.997 82 -290.997 246h89c9.33301 -113.333 77.666 -170 204.999 -170c59.333 0 104.5 11.333 135.5 34s46.5 55 46.5 97c0 34 -11.5 60.833 -34.5 80.5s-61.833 35.167 -116.5 46.5l-100 21
c-66.667 14 -116.667 35.5 -150 64.5s-50 69.5 -50 121.5c0 62 22.167 111.167 66.5 147.5s106.5 54.5 186.5 54.5c79.333 0 142.166 -18.667 188.499 -56s72.166 -90.333 77.499 -159h-89c-4 45.333 -21.333 79.833 -52 103.5s-73.334 35.5 -128.001 35.5
c-51.333 0 -91.166 -10.333 -119.499 -31s-42.5 -49.667 -42.5 -87c0 -28.667 9.66699 -51.5 29 -68.5s51 -30.167 95 -39.5l125 -27c136 -28.667 204 -96 204 -202c0 -64.667 -23.5 -116.167 -70.5 -154.5s-115.167 -57.5 -204.5 -57.5z" />
    <glyph glyph-name="scaron" unicode="&#x161;" horiz-adv-x="505" 
d="M294 581h-96l-118 155h96l70 -100l70 100h96zM255 -13c-131.333 0 -202.999 58.665 -214.999 175.998h88c4.66699 -35.333 17.667 -61.166 39 -77.499s52 -24.5 92 -24.5s70.5 7 91.5 21s31.5 34 31.5 60c0 38.667 -27 63.667 -81 75l-104 22
c-95.333 20 -143 66.667 -143 140c0 46.667 16.667 83.167 50 109.5s80.666 39.5 141.999 39.5c60.667 0 109.167 -13.667 145.5 -41s57.833 -67.666 64.5 -120.999h-91c-10 59.333 -50.667 89 -122 89c-69.333 0 -104 -22.667 -104 -68c0 -18 6.16699 -32.5 18.5 -43.5
s32.833 -19.5 61.5 -25.5l100 -22c52 -12 90.167 -29.833 114.5 -53.5s36.5 -54.5 36.5 -92.5c0 -50.667 -19 -90.5 -57 -119.5s-90.667 -43.5 -158 -43.5z" />
    <glyph glyph-name="uni0162" unicode="&#x162;" horiz-adv-x="639" 
d="M366 631l0.000976562 -631h-16l-40 -62h21c31.333 0 55.666 -7.5 72.999 -22.5s26 -36.5 26 -64.5c0 -30 -12 -53.667 -36 -71s-57.333 -26 -100 -26h-32v54h25c48 0 72 13.333 72 40c0 20.667 -14 31 -42 31h-42l-27 47l47 74h-22v631h-238v81h569v-81h-238z" />
    <glyph glyph-name="uni0163" unicode="&#x163;" horiz-adv-x="357" 
d="M327 445l-117.999 4v-322c0 -19.333 3.5 -32.5 10.5 -39.5s20.167 -10.5 39.5 -10.5h67v-77h-94h-8l-34 -53h21c31.333 0 55.666 -7.5 72.999 -22.5s26 -36.5 26 -64.5c0 -30 -12 -53.667 -36 -71s-57.333 -26 -100 -26h-32v54h25c48 0 72 13.333 72 40
c0 20.667 -14 31 -42 31h-42l-27 47l47 74c-38.667 12.667 -58 48 -58 106v334l-77 -4v71l77 -3v161h92v-162l118 4v-71z" />
    <glyph glyph-name="Tcaron" unicode="&#x164;" horiz-adv-x="639" 
d="M486 945l-118 -155h-96l-118 155h96l70 -100l70 100h96zM35 712h569v-81h-238v-631h-93v631h-238v81z" />
    <glyph glyph-name="tcaron" unicode="&#x165;" horiz-adv-x="357" 
d="M266 573l48 198h110l-89 -198h-69zM209 674v-162l118 4v-71l-118 4v-322c0 -19.333 3.5 -32.5 10.5 -39.5s20.167 -10.5 39.5 -10.5h67v-77h-94c-40 0 -69.167 9.16699 -87.5 27.5s-27.5 47.5 -27.5 87.5v334l-77 -4v71l77 -3v161h92z" />
    <glyph glyph-name="Tbar" unicode="&#x166;" horiz-adv-x="639" 
d="M604 712v-81h-238v-231l219 4v-81l-219 4v-327h-93v327l-218 -4v81l218 -4v231h-238v81h569z" />
    <glyph glyph-name="tbar" unicode="&#x167;" horiz-adv-x="347" 
d="M317 516v-71l-121 4v-145l121 4v-71l-120 4l2 -44v-70c0 -19.333 3.5 -32.5 10.5 -39.5s20.167 -10.5 39.5 -10.5h67v-77h-94c-40 0 -69.167 9.16699 -87.5 27.5s-27.5 47.5 -27.5 87.5v82l2 44l-79 -4v71l80 -3v144l-80 -4v71l79 -3l-2 30v131h92v-131l-2 -31z" />
    <glyph glyph-name="Utilde" unicode="&#x168;" horiz-adv-x="720" 
d="M238 792h-70.001c0 50.667 10.167 88.834 30.5 114.501s48.166 38.5 83.499 38.5c39.333 0 70 -13.667 92 -41c21.333 -28 42.333 -42 63 -42c15.333 0 26.333 6.33301 33 19s10.667 34 12 64h70c0 -50.667 -10.167 -88.834 -30.5 -114.501s-48.166 -38.5 -83.499 -38.5
c-39.333 0 -69.666 14 -90.999 42c-22 27.333 -43.333 41 -64 41c-15.333 0 -26.333 -6.33301 -33 -19s-10.667 -34 -12 -64zM562.999 47c-48.667 -42 -116.333 -63.001 -203 -63.001s-154 21 -202 63c-48.667 40.667 -73 100 -73 178v487h93v-490
c0 -50 15.333 -88.333 46 -115s76 -40 136 -40s105.333 13.333 136 40s46 65 46 115v490h93v-487c0 -77.333 -24 -136.666 -72 -177.999z" />
    <glyph glyph-name="utilde" unicode="&#x169;" horiz-adv-x="594" 
d="M220 679c-15.333 0 -26.334 -6.33301 -33.001 -19s-10.667 -34 -12 -64h-70c0 50.667 10.167 88.834 30.5 114.501s48.166 38.5 83.499 38.5c39.333 0 70 -13.667 92 -41c21.333 -28 42.333 -42 63 -42c15.333 0 26.333 6.33301 33 19s10.667 34 12 64h70
c0 -50.667 -10.167 -88.834 -30.5 -114.501s-48.166 -38.5 -83.499 -38.5c-39.333 0 -69.666 14 -90.999 42c-22 27.333 -43.333 41 -64 41zM421.999 229l0.000976562 287h92v-516h-86v73c-37.333 -57.333 -95 -86 -173 -86c-54.667 0 -97.5 15 -128.5 45
s-46.5 72 -46.5 126v358h92v-340c0 -72.667 34.333 -109 103 -109c43.333 0 78.666 13.5 105.999 40.5s41 67.5 41 121.5z" />
    <glyph glyph-name="Umacron" unicode="&#x16a;" horiz-adv-x="720" 
d="M520 808h-320v71h320v-71zM563 47c-48.667 -42 -116.333 -63.001 -203 -63.001s-154 21 -202 63c-48.667 40.667 -73 100 -73 178v487h93v-490c0 -50 15.333 -88.333 46 -115s76 -40 136 -40s105.333 13.333 136 40s46 65 46 115v490h93v-487
c0 -77.333 -24 -136.666 -72 -177.999z" />
    <glyph glyph-name="umacron" unicode="&#x16b;" horiz-adv-x="594" 
d="M137 683h320v-71h-320v71zM422 229l0.000976562 287h92v-516h-86v73c-37.333 -57.333 -95 -86 -173 -86c-54.667 0 -97.5 15 -128.5 45s-46.5 72 -46.5 126v358h92v-340c0 -72.667 34.333 -109 103 -109c43.333 0 78.666 13.5 105.999 40.5s41 67.5 41 121.5z" />
    <glyph glyph-name="Ubreve" unicode="&#x16c;" horiz-adv-x="720" 
d="M359 779c-100.667 0 -153.667 45.667 -159 137h61c2 -51.333 35 -77 99 -77s97 25.667 99 77h61c-5.33301 -91.333 -59 -137 -161 -137zM563 47c-48.667 -42 -116.333 -63.001 -203 -63.001s-154 21 -202 63c-48.667 40.667 -73 100 -73 178v487h93v-490
c0 -50 15.333 -88.333 46 -115s76 -40 136 -40s105.333 13.333 136 40s46 65 46 115v490h93v-487c0 -77.333 -24 -136.666 -72 -177.999z" />
    <glyph glyph-name="ubreve" unicode="&#x16d;" horiz-adv-x="594" 
d="M296 583c-100.667 0 -153.667 45.667 -159 137h61c2 -51.333 35 -77 99 -77s97 25.667 99 77h61c-5.33301 -91.333 -59 -137 -161 -137zM422 229l0.000976562 287h92v-516h-86v73c-37.333 -57.333 -95 -86 -173 -86c-54.667 0 -97.5 15 -128.5 45s-46.5 72 -46.5 126v358
h92v-340c0 -72.667 34.333 -109 103 -109c43.333 0 78.666 13.5 105.999 40.5s41 67.5 41 121.5z" />
    <glyph glyph-name="Uring" unicode="&#x16e;" horiz-adv-x="720" 
d="M459 821c-26 -26 -59 -39 -99 -39s-73 13 -99 39s-39 58.667 -39 98s13 72.333 39 99c26 26 59 39 99 39s73 -13 99 -39c26 -26.667 39 -59.667 39 -99s-13 -72 -39 -98zM307 865c13.333 -14 31 -21 53 -21s40 7 54 21c13.333 13.333 20 31.333 20 54
c0 23.333 -6.83301 41.833 -20.5 55.5s-31.5 20.5 -53.5 20.5s-39.833 -6.83301 -53.5 -20.5s-20.5 -32.167 -20.5 -55.5s7 -41.333 21 -54zM563 47c-48.667 -42 -116.333 -63.001 -203 -63.001s-154 21 -202 63c-48.667 40.667 -73 100 -73 178v487h93v-490
c0 -50 15.333 -88.333 46 -115s76 -40 136 -40s105.333 13.333 136 40s46 65 46 115v490h93v-487c0 -77.333 -24 -136.666 -72 -177.999z" />
    <glyph glyph-name="uring" unicode="&#x16f;" horiz-adv-x="594" 
d="M396 625c-26 -26 -59 -39 -99 -39s-73 13 -99 39s-39 58.667 -39 98s13 72.333 39 99c26 26 59 39 99 39s73 -13 99 -39c26 -26.667 39 -59.667 39 -99s-13 -72 -39 -98zM351 779c-14 13.333 -32 19.999 -54 19.999s-39.667 -6.66699 -53 -20
c-14 -14 -21 -32.667 -21 -56c0 -22.667 6.83301 -40.834 20.5 -54.501s31.5 -20.5 53.5 -20.5s39.833 6.83301 53.5 20.5s20.5 31.834 20.5 54.501s-6.66699 41.334 -20 56.001zM422 228.999l0.000976562 287h92v-516h-86v73c-37.333 -57.333 -95 -86 -173 -86
c-54.667 0 -97.5 15 -128.5 45s-46.5 72 -46.5 126v358h92v-340c0 -72.667 34.333 -109 103 -109c43.333 0 78.666 13.5 105.999 40.5s41 67.5 41 121.5z" />
    <glyph glyph-name="Uhungarumlaut" unicode="&#x170;" horiz-adv-x="720" 
d="M285 777h-79l91 161h108zM472 777h-79l91 161h108zM563 47c-48.667 -42 -116.333 -63.001 -203 -63.001s-154 21 -202 63c-48.667 40.667 -73 100 -73 178v487h93v-490c0 -50 15.333 -88.333 46 -115s76 -40 136 -40s105.333 13.333 136 40s46 65 46 115v490h93v-487
c0 -77.333 -24 -136.666 -72 -177.999z" />
    <glyph glyph-name="uhungarumlaut" unicode="&#x171;" horiz-adv-x="594" 
d="M234 742h108l-120 -161h-79zM529 742l-120 -161h-79l91 161h108zM422 229l0.000976562 287h92v-516h-86v73c-37.333 -57.333 -95 -86 -173 -86c-54.667 0 -97.5 15 -128.5 45s-46.5 72 -46.5 126v358h92v-340c0 -72.667 34.333 -109 103 -109
c43.333 0 78.666 13.5 105.999 40.5s41 67.5 41 121.5z" />
    <glyph glyph-name="Uogonek" unicode="&#x172;" horiz-adv-x="720" 
d="M542 222v490h93v-487c0 -64 -16.667 -116 -50 -156s-81.333 -66 -144 -78l-57 -38c-26 -16.667 -39 -34 -39 -52c0 -26.667 20 -40 60 -40h32v-65h-55c-80.667 0 -121 29.333 -121 88c0 38.667 25 71.667 75 99l3 1c-80.667 3.33301 -143.167 25.833 -187.5 67.5
s-66.5 99.5 -66.5 173.5v487h93v-490c0 -50 15.333 -88.333 46 -115s76 -40 136 -40s105.333 13.333 136 40s46 65 46 115z" />
    <glyph glyph-name="uogonek" unicode="&#x173;" horiz-adv-x="594" 
d="M514 0l-65.999 -44c-26 -16.667 -39 -34 -39 -52c0 -26.667 20 -40 60 -40h32v-65h-55c-80.667 0 -121 29.333 -121 88c0 39.333 25 72.333 75 99l45 24l-14 79c-35.333 -61.333 -93.333 -92 -174 -92c-54.667 0 -98.667 15.667 -132 47c-30 29.333 -45 74.333 -45 135
v337h92v-330c0 -37.333 8.33301 -64.333 25 -81c16.667 -18.667 42.667 -28 78 -28c43.333 0 78.666 13.5 105.999 40.5s41 67.5 41 121.5v277h92v-516z" />
    <glyph glyph-name="Wcircumflex" unicode="&#x174;" horiz-adv-x="955" 
d="M548 777l-70 100l-70 -100h-96l118 155h96l118 -155h-96zM717 287l113 425h95l-198 -712h-89l-165 616l-164 -616h-89l-190 712h95l106 -425l35 -160l39 160l116 425h105l115 -425l38 -161z" />
    <glyph glyph-name="wcircumflex" unicode="&#x175;" horiz-adv-x="772" 
d="M456 581l-70 100l-70 -100h-96l118 155h96l118 -155h-96zM567 218l85 298h95l-168 -516h-92l-73 308l-26 130l-28 -130l-78 -308h-94l-163 516h100l81 -298l31 -123l27 123l74 298h100l74 -298l25 -123z" />
    <glyph glyph-name="Ycircumflex" unicode="&#x176;" horiz-adv-x="684" 
d="M412 777l-70 100l-70 -100h-96l118 155h96l118 -155h-96zM378 420l179 292h106l-270 -420v-292h-93v292l-279 420h112l183 -292l31 -53z" />
    <glyph glyph-name="ycircumflex" unicode="&#x177;" horiz-adv-x="539" 
d="M340 581l-70 100l-70 -100h-96l118 155h96l118 -155h-96zM270 98l148.999 418.001h95l-240 -617c-15.333 -38.667 -33.5 -65.5 -54.5 -80.5s-50.167 -22.5 -87.5 -22.5h-57v77h48c23.333 0 40.833 4.66699 52.5 14s22.834 27.666 33.501 54.999l24 63l-208 511h100
l134 -356z" />
    <glyph glyph-name="Ydieresis" unicode="&#x178;" horiz-adv-x="684" 
d="M189 899h92v-99h-92v99zM403 899h92v-99h-92v99zM378 420l179 292h106l-270 -420v-292h-93v292l-279 420h112l183 -292l31 -53z" />
    <glyph glyph-name="Zacute" unicode="&#x179;" horiz-adv-x="675" 
d="M362 932h126l-133 -155h-81zM600 638l-433 -555h448v-83h-556v90l422 539h-395v83h514v-74z" />
    <glyph glyph-name="zacute" unicode="&#x17a;" horiz-adv-x="531" 
d="M290 736h126l-133 -155h-81zM464 460l-306 -386h323v-74h-431v65l299 377h-286v74h401v-56z" />
    <glyph glyph-name="Zdotaccent" unicode="&#x17b;" horiz-adv-x="675" 
d="M292 899h92v-99h-92v99zM600 638l-433 -555h448v-83h-556v90l422 539h-395v83h514v-74z" />
    <glyph glyph-name="zdotaccent" unicode="&#x17c;" horiz-adv-x="531" 
d="M220 712h92v-99h-92v99zM464 460l-306 -386h323v-74h-431v65l299 377h-286v74h401v-56z" />
    <glyph glyph-name="Zcaron" unicode="&#x17d;" horiz-adv-x="675" 
d="M504 945l-118 -155h-96l-118 155h96l70 -100l70 100h96zM600 638l-433 -555h448v-83h-556v90l422 539h-395v83h514v-74z" />
    <glyph glyph-name="zcaron" unicode="&#x17e;" horiz-adv-x="531" 
d="M432 736l-118 -155h-96l-118 155h96l70 -100l70 100h96zM464 460l-306 -386h323v-74h-431v65l299 377h-286v74h401v-56z" />
    <glyph glyph-name="uni018F" unicode="&#x18f;" horiz-adv-x="802" 
d="M392 725c103.333 0 186.999 -33.332 250.999 -99.999c63.333 -67.333 95 -157.333 95 -270c0 -110.667 -30.667 -200.667 -92 -270c-60.667 -68.667 -143 -103 -247 -103c-103.333 0 -185 34 -245 102s-90 151.667 -90 251c0 18.667 0.333008 32 1 40h577
c-4 85.333 -28.167 151.166 -72.5 197.499s-103.833 69.5 -178.5 69.5c-99.333 0 -166 -39.333 -200 -118h-99c22 64 59.333 113.5 112 148.5s115.334 52.5 188.001 52.5zM400.999 66.001c68 0 122.667 19.999 164 59.999s66.333 96 75 168h-479
c6 -69.333 30 -124.666 72 -165.999s98 -62 168 -62z" />
    <glyph glyph-name="florin" unicode="&#x192;" 
d="M543 637h-47c-23.333 0 -40.833 -5.33301 -52.5 -16s-20.167 -30 -25.5 -58l-28 -147l109 4l-14 -71l-108 4l-70 -362c-9.33301 -48.667 -26.833 -84.167 -52.5 -106.5s-62.5 -33.5 -110.5 -33.5h-62l15 75h42c23.333 0 40.833 5.33301 52.5 16s20.167 29.667 25.5 57
l69 353l-105 -3l14 71l104 -3l30 155c9.33301 48.667 26.833 84.167 52.5 106.5s62.5 33.5 110.5 33.5h66z" />
    <glyph glyph-name="uni01F4" unicode="&#x1f4;" horiz-adv-x="807" 
d="M431 932h126l-133 -155h-81zM414 300l-0.00195312 81.001h308v-381h-68l-21 96c-50.667 -74.667 -128 -112 -232 -112c-98.667 0 -179.667 33.667 -243 101c-62.667 66.667 -94 157.667 -94 273c0 112.667 30.667 202.667 92 270c60.667 66.667 144.334 100 251.001 100
c80.667 0 148.667 -19.667 204 -59c54.667 -40 87.334 -94.333 98.001 -163l-90 -6c-10 47.333 -33.333 83.333 -70 108s-82.334 37 -137.001 37c-80 0 -142.167 -25.667 -186.5 -77s-66.5 -122.333 -66.5 -213c0 -86.667 21.667 -156.334 65 -209.001
c42.667 -52.667 102.334 -79 179.001 -79c60 0 109.667 17 149 51s65.333 81.667 78 143v39h-216z" />
    <glyph glyph-name="uni01F5" unicode="&#x1f5;" horiz-adv-x="606" 
d="M297 736h126l-133 -155h-81zM440 436l0.00390625 79.999h86v-499c0 -155.333 -80.667 -233 -242 -233c-63.333 0 -113.833 12.667 -151.5 38s-59.834 63 -66.501 113h90c6.66699 -27.333 20.5 -47.166 41.5 -59.499s50.833 -18.5 89.5 -18.5
c53.333 0 91.666 11.667 114.999 35s35 62 35 116v67c-16.667 -26.667 -39.334 -47.667 -68.001 -63s-60 -23 -94 -23c-68.667 0 -123.334 26 -164.001 78c-40.667 50.667 -61 117 -61 199c0 77.333 20.667 140.333 62 189c41.333 48 95 72 161 72
c36.667 0 69.667 -8 99 -24s52 -38.333 68 -67zM180.004 121.999c25.333 -36 60 -54 104 -54s80 17.667 108 53s42 83 42 143c0 58.667 -13.333 104 -40 136s-62.667 48 -108 48c-46 0 -81.5 -15.833 -106.5 -47.5s-37.5 -76.5 -37.5 -134.5
c0 -60.667 12.667 -108.667 38 -144z" />
    <glyph glyph-name="Aringacute" unicode="&#x1fa;" horiz-adv-x="716" 
d="M378 1109h126l-132 -151h-81zM686 0l-103 -0.000976562l-75 209h-302l-77 -209h-99l258 666c-48 25.333 -72 66 -72 122c0 39.333 13 72.166 39 98.499s59 39.5 99 39.5s73 -13.167 99 -39.5s39 -59.166 39 -98.499c0 -53.333 -21.667 -92.666 -65 -117.999zM408 843.999
c-14 13.333 -32 19.999 -54 19.999s-39.667 -6.66699 -53 -20c-14 -14 -21 -32.667 -21 -56c0 -22.667 6.83301 -40.834 20.5 -54.501s31.5 -20.5 53.5 -20.5s39.833 6.83301 53.5 20.5s20.5 31.834 20.5 54.501s-6.66699 41.334 -20 56.001zM335 558.998l-99 -269h243
l-97 269l-23 74z" />
    <glyph glyph-name="aringacute" unicode="&#x1fb;" horiz-adv-x="570" 
d="M311 1063h126l-133 -155h-81zM386 623c-26 -26 -59 -39 -99 -39s-73 13 -99 39s-39 58.667 -39 98s13 72.333 39 99c26 26 59 39 99 39s73 -13 99 -39c26 -26.667 39 -59.667 39 -99s-13 -72 -39 -98zM341 777c-14 13.333 -32 19.999 -54 19.999
s-39.667 -6.66699 -53 -20c-14 -14 -21 -32.667 -21 -56c0 -22.667 6.83301 -40.834 20.5 -54.501s31.5 -20.5 53.5 -20.5s39.833 6.83301 53.5 20.5s20.5 31.834 20.5 54.501s-6.66699 41.334 -20 56.001zM535 67.999l14.998 0.00195312v-68h-49
c-55.333 0 -85 25.333 -89 76c-18 -27.333 -43.333 -49 -76 -65s-69.667 -24 -111 -24c-54 0 -96.333 13.167 -127 39.5s-46 63.166 -46 110.499c0 92 58.667 145.667 176 161l132 17c24.667 2.66699 37 15.667 37 39v22c0 53.333 -38.667 80 -116 80
c-38.667 0 -67.167 -7 -85.5 -21s-28.833 -37.667 -31.5 -71h-91c8.66699 112 80.334 168 215.001 168s202 -55 202 -165v-254c0 -16.667 3.33301 -28.334 10 -35.001s18.334 -10 35.001 -10zM241.998 58.001c42 0 78.332 12.332 108.999 36.999s46 53.334 46 86.001v72
l-154 -23c-66.667 -10 -100 -39.667 -100 -89c0 -26 8.83301 -46.333 26.5 -61s41.834 -22 72.501 -22z" />
    <glyph glyph-name="AEacute" unicode="&#x1fc;" horiz-adv-x="1137" 
d="M652 932h126l-133 -155h-81zM652 326v-245h420v-81h-513v188h-319l-113 -188h-97l429 712h604v-81h-411v-224h379v-81h-379zM509 636l-223 -372h273v372h-50z" />
    <glyph glyph-name="aeacute" unicode="&#x1fd;" horiz-adv-x="919" 
d="M484 736h126l-133 -155h-81zM869 270v-34.001h-387c1.33301 -56 15.666 -98.833 42.999 -128.5s65 -44.5 113 -44.5c71.333 0 119 34.333 143 103l84 -10c-16 -53.333 -44.167 -94.666 -84.5 -123.999s-88.833 -44 -145.5 -44c-90 0 -155.667 36 -197 108
c-42 -72.667 -109.333 -109 -202 -109c-56 0 -100.667 14.167 -134 42.5s-50 66.5 -50 114.5s16.5 86.333 49.5 115s81.833 43 146.5 43h148v59c0 63.333 -39.667 95 -119 95c-36 0 -63.167 -7.16699 -81.5 -21.5s-29.166 -37.833 -32.499 -70.5h-90
c4.66699 55.333 25 97 61 125s86 42 150 42c87.333 0 145 -26.667 173 -80c41.333 51.333 100 77 176 77c72.667 0 130.167 -23 172.5 -69s63.5 -109 63.5 -189zM736 413.999c-26 26 -60.001 39 -102.001 39c-41.333 0 -75.666 -12.667 -102.999 -38
c-26.667 -26 -42.667 -63.667 -48 -113h300c-6 48 -21.667 85.333 -47 112zM243.999 58.999c42.667 0 78.666 13.333 107.999 40c29.333 26 44 59.667 44 101v35l-154 -6c-66.667 -2.66699 -100 -31 -100 -85c0 -26 9.33301 -46.667 28 -62s43.334 -23 74.001 -23z" />
    <glyph glyph-name="Oslashacute" unicode="&#x1fe;" horiz-adv-x="801" 
d="M424 932h126l-133 -155h-81zM687 725l50 -43l-73 -85c48.667 -66.667 73 -147 73 -241c0 -110.667 -31 -200.334 -93 -269.001c-63.333 -69.333 -144.666 -104 -243.999 -104c-80.667 0 -149.334 23.333 -206.001 70l-59 -68l-50 43l62 72
c-55.333 68.667 -83 154 -83 256c0 108.667 31.333 197.334 94 266.001c62 68.667 142.667 103 242 103c86.667 0 159.667 -26.333 219 -79zM159 356c0 -73.333 16.332 -135.334 48.999 -186.001l353 409c-42.667 42 -96 63 -160 63c-71.333 0 -129.666 -26 -174.999 -78
c-44.667 -51.333 -67 -120.666 -67 -207.999zM641.999 355.999c0 67.333 -13.333 123.667 -40 169l-351 -405c40.667 -36 90.667 -54 150 -54c72 0 130.333 26.333 175 79c44 52 66 122.333 66 211z" />
    <glyph glyph-name="oslashacute" unicode="&#x1ff;" horiz-adv-x="597" 
d="M325 749h126l-133 -155h-81zM540 490l-45.999 -53.001c35.333 -46.667 53 -105 53 -175c0 -81.333 -23.333 -147.333 -70 -198c-47.333 -51.333 -107 -77 -179 -77c-58.667 0 -109.334 16.333 -152.001 49l-43 -49l-50 39l49 56c-34.667 47.333 -52 106 -52 176
c0 82.667 23.333 148.334 70 197.001c46 49.333 106.333 74 181 74c58 0 107.667 -15.667 149 -47l40 47zM142.001 257.999c0 -41.333 7 -76.667 21 -106l232 268c-25.333 21.333 -57.666 32 -96.999 32c-48.667 0 -86.834 -17.333 -114.501 -52s-41.5 -82 -41.5 -142z
M298.001 63.998c48.667 0 87 18.001 115 54.001s42 84 42 144c0 41.333 -7 76.666 -21 105.999l-234 -269c27.333 -23.333 60 -35 98 -35z" />
    <glyph glyph-name="uni0218" unicode="&#x218;" horiz-adv-x="668" 
d="M288 426l125.003 -27c136 -28.667 204 -96 204 -202c0 -64.667 -23.5 -116.167 -70.5 -154.5s-115.167 -57.5 -204.5 -57.5c-182 0 -279 82 -291 246h89c9.33301 -113.333 77.666 -170 204.999 -170c59.333 0 104.5 11.333 135.5 34s46.5 55 46.5 97
c0 34 -11.5 60.833 -34.5 80.5s-61.833 35.167 -116.5 46.5l-100 21c-66.667 14 -116.667 35.5 -150 64.5s-50 69.5 -50 121.5c0 62 22.167 111.167 66.5 147.5s106.5 54.5 186.5 54.5c79.333 0 142.166 -18.667 188.499 -56s72.166 -90.333 77.499 -159h-89
c-4 45.333 -21.333 79.833 -52 103.5s-73.334 35.5 -128.001 35.5c-51.333 0 -91.166 -10.333 -119.499 -31s-42.5 -49.667 -42.5 -87c0 -28.667 9.66699 -51.5 29 -68.5s51 -30.167 95 -39.5zM359.003 -145l-72 -5v77h111v-96c0 -55.333 -25.667 -83 -77 -83h-34v39h34
c25.333 0 38 12 38 36v32z" />
    <glyph glyph-name="uni0219" unicode="&#x219;" horiz-adv-x="505" 
d="M219 318l100.001 -22.002c52 -12 90.167 -29.833 114.5 -53.5s36.5 -54.5 36.5 -92.5c0 -50.667 -19 -90.5 -57 -119.5s-90.667 -43.5 -158 -43.5c-131.333 0 -203 58.667 -215 176h88c4.66699 -35.333 17.667 -61.166 39 -77.499s52 -24.5 92 -24.5s70.5 7 91.5 21
s31.5 34 31.5 60c0 38.667 -27 63.667 -81 75l-104 22c-95.333 20 -143 66.667 -143 140c0 46.667 16.667 83.167 50 109.5s80.666 39.5 141.999 39.5c60.667 0 109.167 -13.667 145.5 -41s57.833 -67.666 64.5 -120.999h-91c-10 59.333 -50.667 89 -122 89
c-69.333 0 -104 -22.667 -104 -68c0 -18 6.16699 -32.5 18.5 -43.5s32.833 -19.5 61.5 -25.5zM273.001 -144.002l-72 -5v77h111v-96c0 -55.333 -25.667 -83 -77 -83h-34v39h34c25.333 0 38 12 38 36v32z" />
    <glyph glyph-name="uni021A" unicode="&#x21a;" horiz-adv-x="639" 
d="M35 631v81h569v-81h-238v-631h-93v631h-238zM337 -138l-72 -5v77h111v-96c0 -55.333 -25.667 -83 -77 -83h-34v39h34c25.333 0 38 12 38 36v32z" />
    <glyph glyph-name="uni021B" unicode="&#x21b;" horiz-adv-x="357" 
d="M327 445l-118 4v-322c0 -19.333 3.5 -32.5 10.5 -39.5s20.167 -10.5 39.5 -10.5h67v-77h-94c-40 0 -69.167 9.16699 -87.5 27.5s-27.5 47.5 -27.5 87.5v334l-77 -4v71l77 -3v161h92v-162l118 4v-71zM181 -129l-72 -5v77h111v-96c0 -55.333 -25.667 -83 -77 -83h-34v39h34
c25.333 0 38 12 38 36v32z" />
    <glyph glyph-name="uni0237" unicode="&#x237;" horiz-adv-x="252" 
d="M17 -204h-25v77h23c24.667 0 41.667 4.66699 51 14s14 26.333 14 51v578h92v-565c0 -54 -12.333 -93.333 -37 -118s-64 -37 -118 -37z" />
    <glyph glyph-name="uni0259" unicode="&#x259;" horiz-adv-x="579" 
d="M284 528c76 0 135.999 -24.998 179.999 -74.998c43.333 -51.333 65 -117 65 -197c0 -80.667 -21.333 -145.334 -64 -194.001c-43.333 -49.333 -103 -74 -179 -74c-72.667 0 -130.167 23 -172.5 69s-63.5 109 -63.5 189v34h387c-1.33301 56 -15.666 98.833 -42.999 128.5
s-65 44.5 -113 44.5c-71.333 0 -119 -34.333 -143 -103l-84 10c16 53.333 44.167 94.666 84.5 123.999s88.833 44 145.5 44zM183.999 102.002c25.333 -26 59 -39 101 -39s76.667 13 104 39c26 24 41.667 61.333 47 112h-300c6 -48.667 22 -86 48 -112z" />
    <glyph glyph-name="h.sups" unicode="&#x2b0;" horiz-adv-x="488" 
d="M278 720c41.333 0 73.333 -11.5 96 -34.5s34 -55.5 34 -97.5v-216h-76v200c0 52.667 -26.333 79 -79 79c-30 0 -53.833 -9 -71.5 -27s-26.5 -42 -26.5 -72v-180h-75v470h75v-189c24.667 44.667 65.667 67 123 67z" />
    <glyph glyph-name="r.sups" unicode="&#x2b3;" horiz-adv-x="308" 
d="M266 717h27v-71h-27c-74 0 -111 -38 -111 -114v-160h-75v340h70l3 -64c20 46 57.667 69 113 69z" />
    <glyph glyph-name="circumflex" unicode="&#x2c6;" horiz-adv-x="500" 
d="M180 581h-96l118 155h96l118 -155h-96l-70 100z" />
    <glyph glyph-name="caron" unicode="&#x2c7;" horiz-adv-x="500" 
d="M298 581h-96l-118 155h96l70 -100l70 100h96z" />
    <glyph glyph-name="uni02C9" unicode="&#x2c9;" horiz-adv-x="500" 
d="M410 612h-320v71h320v-71z" />
    <glyph glyph-name="breve" unicode="&#x2d8;" horiz-adv-x="500" 
d="M249 615c-100.667 0 -153.667 45.667 -159 137h61c2 -51.333 35 -77 99 -77s97 25.667 99 77h61c-5.33301 -91.333 -59 -137 -161 -137z" />
    <glyph glyph-name="dotaccent" unicode="&#x2d9;" horiz-adv-x="500" 
d="M296 613h-92v99h92v-99z" />
    <glyph glyph-name="ring" unicode="&#x2da;" horiz-adv-x="500" 
d="M349 625c-26 -26 -59 -39 -99 -39s-73 13 -99 39s-39 58.667 -39 98s13 72.333 39 99c26 26 59 39 99 39s73 -13 99 -39c26 -26.667 39 -59.667 39 -99s-13 -72 -39 -98zM197 669c13.333 -14 31 -21 53 -21s40 7 54 21c13.333 13.333 20 31.333 20 54
c0 23.333 -6.83301 41.833 -20.5 55.5s-31.5 20.5 -53.5 20.5s-39.833 -6.83301 -53.5 -20.5s-20.5 -32.167 -20.5 -55.5s7 -41.333 21 -54z" />
    <glyph glyph-name="ogonek" unicode="&#x2db;" horiz-adv-x="500" 
d="M332 -201h-55c-80.667 0 -121 29.333 -121 88c0 39.333 25 72.333 75 99l53 29l61 -15l-66 -44c-26 -16.667 -39 -34 -39 -52c0 -26.667 20 -40 60 -40h32v-65z" />
    <glyph glyph-name="tilde" unicode="&#x2dc;" horiz-adv-x="500" 
d="M128 636h-70.001c0 50.667 10.167 88.834 30.5 114.501s48.166 38.5 83.499 38.5c39.333 0 70 -13.667 92 -41c21.333 -28 42.333 -42 63 -42c15.333 0 26.333 6.33301 33 19s10.667 34 12 64h70c0 -50.667 -10.167 -88.834 -30.5 -114.501s-48.166 -38.5 -83.499 -38.5
c-39.333 0 -69.666 14 -90.999 42c-22 27.333 -43.333 41 -64 41c-15.333 0 -26.333 -6.33301 -33 -19s-10.667 -34 -12 -64z" />
    <glyph glyph-name="hungarumlaut" unicode="&#x2dd;" horiz-adv-x="500" 
d="M136 581h-79l91 161h108zM323 581h-79l91 161h108z" />
    <glyph glyph-name="s.sups" unicode="&#x2e2;" horiz-adv-x="432" 
d="M219 360c-98.667 0 -155.001 35.3311 -169.001 105.998l70 7c6.66699 -36.667 41 -55 103 -55c60 0 90 15.333 90 46c0 12 -4.66699 21 -14 27s-25.666 10.333 -48.999 13l-71 8c-78.667 8.66699 -118 42.334 -118 101.001c0 33.333 13.5 59.5 40.5 78.5
s63.833 28.5 110.5 28.5c44 0 79.667 -8.66699 107 -26s44.333 -42 51 -74l-68 -7c-8.66699 32.667 -39.667 49 -93 49c-52.667 0 -79 -15 -79 -45c0 -20.667 18 -33.667 54 -39l90 -12c72 -9.33301 108 -40.666 108 -93.999c0 -36 -14.5 -63.667 -43.5 -83
s-68.833 -29 -119.5 -29z" />
    <glyph glyph-name="gravecomb" unicode="&#x300;" horiz-adv-x="0" 
d="M56 581h-81l-133 155h126z" />
    <glyph glyph-name="acutecomb" unicode="&#x301;" horiz-adv-x="0" 
d="M17 581h-81l88 155h126z" />
    <glyph glyph-name="uni0302" unicode="&#x302;" horiz-adv-x="0" 
d="M-70 581h-96l118 155h96l118 -155h-96l-70 100z" />
    <glyph glyph-name="tildecomb" unicode="&#x303;" horiz-adv-x="0" 
d="M-122 636h-70.001c0 50.667 10.167 88.834 30.5 114.501s48.166 38.5 83.499 38.5c39.333 0 70 -13.667 92 -41c21.333 -28 42.333 -42 63 -42c15.333 0 26.333 6.33301 33 19s10.667 34 12 64h70c0 -50.667 -10.167 -88.834 -30.5 -114.501s-48.166 -38.5 -83.499 -38.5
c-39.333 0 -69.666 14 -90.999 42c-22 27.333 -43.333 41 -64 41c-15.333 0 -26.333 -6.33301 -33 -19s-10.667 -34 -12 -64z" />
    <glyph glyph-name="uni0304" unicode="&#x304;" horiz-adv-x="0" 
d="M160 612h-320v71h320v-71z" />
    <glyph glyph-name="uni0306" unicode="&#x306;" horiz-adv-x="0" 
d="M-1 615c-100.667 0 -153.667 45.667 -159 137h61c2 -51.333 35 -77 99 -77s97 25.667 99 77h61c-5.33301 -91.333 -59 -137 -161 -137z" />
    <glyph glyph-name="uni0307" unicode="&#x307;" horiz-adv-x="0" 
d="M46 613h-92v99h92v-99z" />
    <glyph glyph-name="uni0308" unicode="&#x308;" horiz-adv-x="0" 
d="M-61 613h-92v99h92v-99zM153 613h-92v99h92v-99z" />
    <glyph glyph-name="uni030A" unicode="&#x30a;" horiz-adv-x="0" 
d="M99 625c-26 -26 -59 -39 -99 -39s-73 13 -99 39s-39 58.667 -39 98s13 72.333 39 99c26 26 59 39 99 39s73 -13 99 -39c26 -26.667 39 -59.667 39 -99s-13 -72 -39 -98zM-54 669c14 -14 32 -21 54 -21s40 7 54 21c13.333 13.333 20 31.333 20 54
c0 23.333 -6.83301 41.833 -20.5 55.5s-31.5 20.5 -53.5 20.5s-39.833 -6.83301 -53.5 -20.5s-20.5 -32.167 -20.5 -55.5c0 -22.667 6.66699 -40.667 20 -54z" />
    <glyph glyph-name="uni030B" unicode="&#x30b;" horiz-adv-x="0" 
d="M-75 581h-79l91 161h108zM112 581h-79l91 161h108z" />
    <glyph glyph-name="uni030C" unicode="&#x30c;" horiz-adv-x="0" 
d="M48 581h-96l-118 155h96l70 -100l70 100h96z" />
    <glyph glyph-name="uni0312" unicode="&#x312;" horiz-adv-x="0" 
d="M55 753h-34c-24.667 0 -37 -12 -37 -36v-32l71 5v-77h-110v96c0 55.333 25.333 83 76 83h34v-39z" />
    <glyph glyph-name="uni0313" unicode="&#x313;" horiz-adv-x="0" 
d="M-55 715v77h110v-96c0 -55.333 -25.333 -83 -76 -83h-34v39h34c24.667 0 37 12 37 36v32z" />
    <glyph glyph-name="dotbelowcomb" unicode="&#x323;" horiz-adv-x="0" 
d="M46 -196h-92v99h92v-99z" />
    <glyph glyph-name="uni0324" unicode="&#x324;" horiz-adv-x="0" 
d="M-61 -187h-92v99h92v-99zM153 -187h-92v99h92v-99z" />
    <glyph glyph-name="uni0325" unicode="&#x325;" horiz-adv-x="0" 
d="M99 -306c-26 -26 -59 -39 -99 -39s-73 13 -99 39c-26 26.667 -39 59.667 -39 99s13 72 39 98s59 39 99 39s73 -13 99 -39s39 -58.667 39 -98s-13 -72.333 -39 -99zM-54 -263c14 -13.333 32 -20 54 -20s40 6.66699 54 20c13.333 14.667 20 33.334 20 56.001
s-6.83301 40.834 -20.5 54.501s-31.5 20.5 -53.5 20.5s-39.833 -6.83301 -53.5 -20.5s-20.5 -31.834 -20.5 -54.501s6.66699 -41.334 20 -56.001z" />
    <glyph glyph-name="uni0326" unicode="&#x326;" horiz-adv-x="0" 
d="M-56 -143v77h111v-96c0 -55.333 -25.667 -83 -77 -83h-34v39h34c25.333 0 38 12 38 36v32z" />
    <glyph glyph-name="uni0327" unicode="&#x327;" horiz-adv-x="0" 
d="M-26 -246h-31.999v54h25c48 0 72 13.333 72 40c0 20.667 -14 31 -42 31h-42l-27 47l47 74h55l-40 -62h21c31.333 0 55.666 -7.5 72.999 -22.5s26 -36.5 26 -64.5c0 -30 -12 -53.667 -36 -71s-57.333 -26 -100 -26z" />
    <glyph glyph-name="uni0328" unicode="&#x328;" horiz-adv-x="0" 
d="M-13 -201l-55 -0.000976562c-80.667 0 -121 29.333 -121 88c0 39.333 25 72.333 75 99l53 29l61 -15l-66 -44c-26 -17.333 -39 -34.666 -39 -51.999c0 -26.667 20 -40 60 -40h32v-65z" />
    <glyph glyph-name="uni032E" unicode="&#x32e;" horiz-adv-x="0" 
d="M-1 -204c-100.667 0 -153.667 45.667 -159 137h61c2 -51.333 35 -77 99 -77s97 25.667 99 77h61c-5.33301 -91.333 -59 -137 -161 -137z" />
    <glyph glyph-name="uni0331" unicode="&#x331;" horiz-adv-x="0" 
d="M160 -167h-320v71h320v-71z" />
    <glyph glyph-name="uni0335" unicode="&#x335;" horiz-adv-x="0" 
d="M-144 343l-144 -6v71l144 -5l143 5v-71z" />
    <glyph glyph-name="uni0337" unicode="&#x337;" horiz-adv-x="0" 
d="M254 516l-458 -531l-50 43l458 531z" />
    <glyph glyph-name="uni0338" unicode="&#x338;" horiz-adv-x="0" 
d="M326 682l-602 -697l-50 43l602 697z" />
    <glyph glyph-name="uni0394" unicode="&#x394;" horiz-adv-x="716" 
d="M306 712h105l275 -712h-656zM336 560l-177 -479h395l-171 479l-23 71z" />
    <glyph glyph-name="uni03A9" unicode="&#x3a9;" horiz-adv-x="820" 
d="M357 0l-293.001 0.000976562v80h170v2c-52 34 -92 77.167 -120 129.5s-42 109.833 -42 172.5c0 106 31.333 189.333 94 250c61.333 60.667 143 91 245 91c101.333 0 182.333 -30.333 243 -91s91 -144 91 -250c0 -62.667 -13.667 -120.334 -41 -173.001
s-66.666 -95.667 -117.999 -129v-2h170v-80h-292v72c124 68 186 172 186 312c0 83.333 -21.167 147.166 -63.5 191.499s-100.833 66.5 -175.5 66.5c-75.333 0 -134.833 -22.167 -178.5 -66.5s-65.5 -108.166 -65.5 -191.499c0 -138 63.333 -242 190 -312v-72z" />
    <glyph glyph-name="uni03BC" unicode="&#x3bc;" horiz-adv-x="594" 
d="M172 -204h-91.998v720h92v-340c0 -72.667 34.333 -109 103 -109c43.333 0 78.666 13.5 105.999 40.5s41 67.5 41 121.5v287h92v-516h-88l4 76c-37.333 -59.333 -93 -89 -167 -89c-46.667 0 -83.334 13.333 -110.001 40l-2 -2l21 -135v-94z" />
    <glyph glyph-name="pi" unicode="&#x3c0;" horiz-adv-x="682" 
d="M652 516l0.000976562 -85.001h-113v-292c0 -23.333 4.5 -39.666 13.5 -48.999s25.167 -14 48.5 -14h23v-76h-40c-46.667 0 -80.834 11.167 -102.501 33.5s-32.5 58.5 -32.5 108.5v289h-206v-431h-90v431h-113v85h612z" />
    <glyph glyph-name="d.sups" unicode="&#x1d48;" horiz-adv-x="493" 
d="M338 672v170h75v-470h-63l-6 51c-27.333 -39.333 -70 -59 -128 -59c-50.667 0 -91 16.167 -121 48.5s-45 76.166 -45 131.499c0 54.667 15.167 97.834 45.5 129.501s70.833 47.5 121.5 47.5c54 0 94.333 -16.333 121 -49zM233 423c34.667 0 61.5 10.6689 80.5 32.002
s28.5 50.666 28.5 87.999s-9.83301 66.666 -29.5 87.999s-47.167 32 -82.5 32c-70.667 0 -106 -39.667 -106 -119c0 -38.667 9.33301 -68.5 28 -89.5s45.667 -31.5 81 -31.5z" />
    <glyph glyph-name="t.sups" unicode="&#x1d57;" horiz-adv-x="301" 
d="M271 713v-66l-85 1v-173c0 -28.667 15.333 -43 46 -43h39v-60h-62c-33.333 0 -57.833 7.16699 -73.5 21.5s-23.5 38.5 -23.5 72.5v182l-72 -1v66l72 -2v104h74v-104z" />
    <glyph glyph-name="Wgrave" unicode="&#x1e80;" horiz-adv-x="955" 
d="M446 932l88 -155h-81l-133 155h126zM717 287l113 425h95l-198 -712h-89l-165 616l-164 -616h-89l-190 712h95l106 -425l35 -160l39 160l116 425h105l115 -425l38 -161z" />
    <glyph glyph-name="wgrave" unicode="&#x1e81;" horiz-adv-x="772" 
d="M354 736l88 -155h-81l-133 155h126zM567 218l85 298h95l-168 -516h-92l-73 308l-26 130l-28 -130l-78 -308h-94l-163 516h100l81 -298l31 -123l27 123l74 298h100l74 -298l25 -123z" />
    <glyph glyph-name="Wacute" unicode="&#x1e82;" horiz-adv-x="955" 
d="M502 932h126l-133 -155h-81zM717 287l113 425h95l-198 -712h-89l-165 616l-164 -616h-89l-190 712h95l106 -425l35 -160l39 160l116 425h105l115 -425l38 -161z" />
    <glyph glyph-name="wacute" unicode="&#x1e83;" horiz-adv-x="772" 
d="M410 736h126l-133 -155h-81zM567 218l85 298h95l-168 -516h-92l-73 308l-26 130l-28 -130l-78 -308h-94l-163 516h100l81 -298l31 -123l27 123l74 298h100l74 -298l25 -123z" />
    <glyph glyph-name="Wdieresis" unicode="&#x1e84;" horiz-adv-x="955" 
d="M325 899h92v-99h-92v99zM539 899h92v-99h-92v99zM717 287l113 425h95l-198 -712h-89l-165 616l-164 -616h-89l-190 712h95l106 -425l35 -160l39 160l116 425h105l115 -425l38 -161z" />
    <glyph glyph-name="wdieresis" unicode="&#x1e85;" horiz-adv-x="772" 
d="M233 712h92v-99h-92v99zM447 712h92v-99h-92v99zM567 218l85 298h95l-168 -516h-92l-73 308l-26 130l-28 -130l-78 -308h-94l-163 516h100l81 -298l31 -123l27 123l74 298h100l74 -298l25 -123z" />
    <glyph glyph-name="uni1E9E" unicode="&#x1e9e;" horiz-adv-x="696" 
d="M614 640l-180.001 -219.002c65.333 -6.66699 117 -29.167 155 -67.5s57 -86.833 57 -145.5c0 -66.667 -22.833 -119.667 -68.5 -159s-107.834 -59 -186.501 -59c-42 0 -83 5 -123 15v81c40.667 -9.33301 80.334 -14 119.001 -14c53.333 0 94.333 11.833 123 35.5
s43 56.834 43 99.501c0 42 -14.333 74.5 -43 97.5s-70 34.5 -124 34.5c-21.333 0 -41.333 -1 -60 -3v77l177 225c-40 3.33301 -81.333 5 -124 5c-72 0 -123.667 -16.167 -155 -48.5s-47 -81.833 -47 -148.5v-446h-92v446c0 90.667 24.667 159.834 74 207.501
s122.333 71.5 219 71.5c86.667 0 165.334 -5 236.001 -15v-70z" />
    <glyph glyph-name="Ygrave" unicode="&#x1ef2;" horiz-adv-x="684" 
d="M310 932l88 -155h-81l-133 155h126zM378 420l179 292h106l-270 -420v-292h-93v292l-279 420h112l183 -292l31 -53z" />
    <glyph glyph-name="ygrave" unicode="&#x1ef3;" horiz-adv-x="539" 
d="M238 736l88 -155h-81l-133 155h126zM270 98l148.999 418.001h95l-240 -617c-15.333 -38.667 -33.5 -65.5 -54.5 -80.5s-50.167 -22.5 -87.5 -22.5h-57v77h48c23.333 0 40.833 4.66699 52.5 14s22.834 27.666 33.501 54.999l24 63l-208 511h100l134 -356z" />
    <glyph glyph-name="thinspace" unicode="&#x2009;" horiz-adv-x="252" 
 />
    <glyph glyph-name="uni2011" unicode="&#x2011;" horiz-adv-x="380" 
d="M330 208h-280v83h280v-83z" />
    <glyph glyph-name="endash" unicode="&#x2013;" horiz-adv-x="535" 
d="M485 208h-435v83h435v-83z" />
    <glyph glyph-name="emdash" unicode="&#x2014;" horiz-adv-x="829" 
d="M779 208h-729v83h729v-83z" />
    <glyph glyph-name="quoteleft" unicode="&#x2018;" horiz-adv-x="204" 
d="M162 473h-110v135c0 72 33 108 99 108h10v-50h-10c-31.333 0 -47 -15.667 -47 -47v-51l58 5v-100z" />
    <glyph glyph-name="quoteright" unicode="&#x2019;" horiz-adv-x="204" 
d="M53 469h-10v50h10c31.333 0 47 15.667 47 47v51l-58 -5v100h110v-135c0 -72 -33 -108 -99 -108z" />
    <glyph glyph-name="quotesinglbase" unicode="&#x201a;" horiz-adv-x="300" 
d="M106 -143h-10v50h10c31.333 0 47 15.667 47 47v51l-58 -5v100h110v-135c0 -72 -33 -108 -99 -108z" />
    <glyph glyph-name="quotedblleft" unicode="&#x201c;" horiz-adv-x="381" 
d="M162 474h-110v135c0 72 33 108 99 108h10v-50h-10c-31.333 0 -47 -15.667 -47 -47v-51l58 5v-100zM339 474h-110v135c0 72 33 108 99 108h10v-50h-10c-31.333 0 -47 -15.667 -47 -47v-51l58 5v-100z" />
    <glyph glyph-name="quotedblright" unicode="&#x201d;" horiz-adv-x="381" 
d="M53 469h-10v50h10c31.333 0 47 15.667 47 47v51l-58 -5v100h110v-135c0 -72 -33 -108 -99 -108zM230 469h-10v50h10c31.333 0 47 15.667 47 47v51l-58 -5v100h110v-135c0 -72 -33 -108 -99 -108z" />
    <glyph glyph-name="quotedblbase" unicode="&#x201e;" horiz-adv-x="474" 
d="M106 -142h-10v50h10c31.333 0 47 15.667 47 47v50l-58 -5v101h110v-135c0 -72 -33 -108 -99 -108zM280 -143h-10v50h10c31.333 0 47 15.667 47 47v51l-58 -5v100h110v-135c0 -72 -33 -108 -99 -108z" />
    <glyph glyph-name="dagger" unicode="&#x2020;" horiz-adv-x="628" 
d="M359 594l184 4v-82l-184 4v-625h-90v625l-184 -4v82l184 -4v256h90v-256z" />
    <glyph glyph-name="daggerdbl" unicode="&#x2021;" horiz-adv-x="628" 
d="M543 598v-82l-184 4v-291l184 4v-82l-184 4v-260h-90v260l-184 -4v82l184 -4v291l-184 -4v82l184 -4v256h90v-256z" />
    <glyph glyph-name="bullet" unicode="&#x2022;" horiz-adv-x="366" 
d="M281 190h-196v175h196v-175z" />
    <glyph glyph-name="ellipsis" unicode="&#x2026;" horiz-adv-x="839" 
d="M193 0h-113v101h113v-101zM476 0h-113v101h113v-101zM759 0h-113v101h113v-101z" />
    <glyph glyph-name="perthousand" unicode="&#x2030;" horiz-adv-x="1682" 
d="M269 305c-60 0 -105.667 19.333 -137 58s-47 94.667 -47 168s15.667 129.333 47 168s77 58 137 58c60.667 0 106.667 -19.333 138 -58s47 -94.667 47 -168s-15.667 -129.333 -47 -168s-77.333 -58 -138 -58zM420 -15h-93l448 742h91zM193 412
c16 -24 41.332 -35.999 75.999 -35.999s60.334 12.333 77.001 37c16.667 23.333 25 62.666 25 117.999c0 54.667 -8.33301 94.334 -25 119.001c-17.333 24 -43 36 -77 36c-34.667 0 -60 -12 -76 -36c-16.667 -24.667 -25 -64.334 -25 -119.001
c0 -56 8.33301 -95.667 25 -119zM946.999 -15.999c-60 0 -105.667 19.333 -137 58s-47 94.667 -47 168s15.667 129.333 47 168s77 58 137 58c60.667 0 106.667 -19.333 138 -58s47 -94.667 47 -168s-15.667 -129.333 -47 -168s-77.333 -58 -138 -58zM1412 -15.999
c-60 0 -105.667 19.333 -137 58s-47 94.667 -47 168s15.667 129.333 47 168s77 58 137 58c60.667 0 106.667 -19.333 138 -58s47 -94.667 47 -168s-15.667 -129.333 -47 -168s-77.333 -58 -138 -58zM870.999 91.001c16 -24 41.332 -35.999 75.999 -35.999
s60.334 12.333 77.001 37c16.667 23.333 25 62.666 25 117.999c0 54.667 -8.33301 94.334 -25 119.001c-17.333 24 -43 36 -77 36c-34.667 0 -60 -12 -76 -36c-16.667 -24.667 -25 -64.334 -25 -119.001c0 -56 8.33301 -95.667 25 -119zM1336 91.002
c16 -24 41.333 -35.999 76 -35.999s60.334 12.333 77.001 37c16.667 23.333 25 62.666 25 117.999c0 54.667 -8.33301 94.334 -25 119.001c-16.667 24 -42.334 36 -77.001 36s-60 -12 -76 -36c-16.667 -24.667 -25 -64.334 -25 -119.001c0 -56 8.33301 -95.667 25 -119z" />
    <glyph glyph-name="guilsinglleft" unicode="&#x2039;" horiz-adv-x="410" 
d="M330 92v-102l-250 218v98l250 218v-102l-191 -165z" />
    <glyph glyph-name="guilsinglright" unicode="&#x203a;" horiz-adv-x="410" 
d="M330 208l-250 -218v102l191 165l-191 165v102l250 -218v-98z" />
    <glyph glyph-name="uni203D" unicode="&#x203d;" horiz-adv-x="609" 
d="M302 725c74 0 133 -17.499 177 -52.499s66 -83.5 66 -145.5c0 -74 -34 -132.667 -102 -176l-50 -31c-23.333 -14.667 -38.666 -30.667 -45.999 -48c-7.33301 -18 -13 -50 -17 -96h-59l-17 266v90h93v-90l-5 -76c3.33301 3.33301 12.666 10.333 27.999 21
c59.333 39.333 89 85.333 89 138c0 41.333 -13.833 72.666 -41.5 93.999s-66.167 32 -115.5 32c-104.667 0 -159 -52 -163 -156h-88c4 73.333 27.167 130 69.5 170s102.833 60 181.5 60zM352 0.000976562h-103v101h103v-101z" />
    <glyph glyph-name="fraction" unicode="&#x2044;" horiz-adv-x="355" 
d="M1 -15h-93l448 742h91z" />
    <glyph glyph-name="zero.sups" unicode="&#x2070;" horiz-adv-x="459" 
d="M229 356c-60 0 -105.667 19.333 -137 58s-47 94.667 -47 168s15.667 129.333 47 168s77 58 137 58c60.667 0 106.667 -19.333 138 -58s47 -94.667 47 -168s-15.667 -129.333 -47 -168s-77.333 -58 -138 -58zM153 463c16 -24 41.332 -35.999 75.999 -35.999
s60.334 12.333 77.001 37c16.667 23.333 25 62.666 25 117.999c0 54.667 -8.33301 94.334 -25 119.001c-17.333 24 -43 36 -77 36c-34.667 0 -60 -12 -76 -36c-16.667 -24.667 -25 -64.334 -25 -119.001c0 -56 8.33301 -95.667 25 -119z" />
    <glyph glyph-name="four.sups" unicode="&#x2074;" horiz-adv-x="460" 
d="M334 372h-77v98l-207 -2v67l202 264h82v-271l76 2v-62l-76 2v-98zM253 709l-135 -179l139 -2v181h-4z" />
    <glyph glyph-name="five.sups" unicode="&#x2075;" horiz-adv-x="446" 
d="M220 355c-91.333 0 -147.666 34.668 -168.999 104.001l79 17c12.667 -36.667 43 -55 91 -55c30 0 53.333 7.16699 70 21.5s25 34.166 25 59.499c0 26 -8.33301 46.667 -25 62s-40 23 -70 23c-34 0 -60.333 -10.333 -79 -31l-80 17l43 226h259v-66h-204l-18 -108l2 -2
c25.333 17.333 57.333 26 96 26c49.333 0 87.666 -13.167 114.999 -39.5s41 -60.833 41 -103.5c0 -44.667 -15.5 -81 -46.5 -109s-74.167 -42 -129.5 -42z" />
    <glyph glyph-name="six.sups" unicode="&#x2076;" horiz-adv-x="448" 
d="M229 356c-59.333 0 -103.999 18.5 -133.999 55.5s-45 90.167 -45 159.5c0 76 15.667 134.5 47 175.5s76.666 61.5 135.999 61.5c38 0 70.333 -7.83301 97 -23.5s45.334 -37.5 56.001 -65.5l-76 -21c-14.667 30 -40.667 45 -78 45
c-66.667 0 -102.334 -47.333 -107.001 -142c26.667 30.667 66 46 118 46c47.333 0 85 -12.667 113 -38s42 -60 42 -104c0 -46 -15 -82.333 -45 -109s-71.333 -40 -124 -40zM230.001 420c28.667 0 50.832 7.33301 66.499 22s23.5 34.667 23.5 60
c0 24.667 -7.66699 44.667 -23 60c-15.333 14.667 -37.666 22 -66.999 22s-52.333 -7 -69 -21c-17.333 -15.333 -26 -34.333 -26 -57c0 -27.333 8.66699 -48.5 26 -63.5s40.333 -22.5 69 -22.5z" />
    <glyph glyph-name="seven.sups" unicode="&#x2077;" horiz-adv-x="381" 
d="M177 372l-81 -0.000976562c15.333 156 70.333 276.333 165 361h-236v66h331v-63c-54.667 -42.667 -96.167 -92.667 -124.5 -150s-46.5 -128.666 -54.5 -213.999z" />
    <glyph glyph-name="eight.sups" unicode="&#x2078;" horiz-adv-x="456" 
d="M360 398c-32.667 -23.333 -76.667 -34.999 -132 -34.999s-99.333 11.667 -132 35c-32 22.667 -48 54.667 -48 96c0 26 8 48.667 24 68s37.667 32.666 65 39.999v2c-44.667 16.667 -67 47.334 -67 92.001c0 34.667 14.167 62 42.5 82s66.833 30 115.5 30
s87.167 -10 115.5 -30s42.5 -47.333 42.5 -82c0 -44.667 -22.333 -75.334 -67 -92.001v-2c28 -7.33301 49.833 -20.5 65.5 -39.5s23.5 -41.833 23.5 -68.5c0 -41.333 -16 -73.333 -48 -96zM147 689.001c0 -40 27 -60 81 -60s81 20 81 60c0 38.667 -27 58 -81 58
s-81 -19.333 -81 -58zM129 498.001c0 -49.333 33 -74 99 -74s99 24.667 99 74c0 48 -33 72 -99 72s-99 -24 -99 -72z" />
    <glyph glyph-name="nine.sups" unicode="&#x2079;" horiz-adv-x="448" 
d="M215 356c-38 0 -70.334 7.83301 -97.001 23.5s-45.334 37.5 -56.001 65.5l76 21c14.667 -30 40.667 -45 78 -45c66.667 0 102.334 47.333 107.001 142c-26.667 -30.667 -66 -46 -118 -46c-47.333 0 -85 12.667 -113 38s-42 60 -42 104c0 46 15 82.333 45 109
s71.333 40 124 40c59.333 0 104 -18.5 134 -55.5s45 -90.167 45 -159.5c0 -76 -15.667 -134.5 -47 -175.5s-76.666 -61.5 -135.999 -61.5zM151.999 602c14.667 -14.667 36.668 -22 66.001 -22s52.333 7.33301 69 22c17.333 14 26 32.667 26 56
c0 27.333 -8.66699 48.5 -26 63.5s-40.333 22.5 -69 22.5s-50.834 -7.33301 -66.501 -22s-23.5 -34.667 -23.5 -60s8 -45.333 24 -60z" />
    <glyph glyph-name="plus.sups" unicode="&#x207a;" horiz-adv-x="527" 
d="M299 585h172v-63h-172v-150h-69v150h-172v63h172v149h69v-149z" />
    <glyph glyph-name="minus.sups" unicode="&#x207b;" horiz-adv-x="517" 
d="M461 519h-403v64h403v-64z" />
    <glyph glyph-name="parenleft.sups" unicode="&#x207d;" horiz-adv-x="305" 
d="M249 237h-73c-74.667 91.333 -112 195 -112 311c0 120.667 37.333 226.334 112 317.001h73c-73.333 -93.333 -110 -199 -110 -317c0 -112.667 36.667 -216.334 110 -311.001z" />
    <glyph glyph-name="parenright.sups" unicode="&#x207e;" horiz-adv-x="305" 
d="M129 237h-73c73.333 93.333 110 197 110 311c0 118.667 -36.667 224.334 -110 317.001h73c74.667 -90.667 112 -196.334 112 -317.001c0 -116 -37.333 -219.667 -112 -311z" />
    <glyph glyph-name="n.sups" unicode="&#x207f;" horiz-adv-x="488" 
d="M278 720c41.333 0 73.333 -11.5 96 -34.5s34 -55.5 34 -97.5v-216h-76v200c0 52.667 -26.333 79 -79 79c-30 0 -53.833 -9 -71.5 -27s-26.5 -42 -26.5 -72v-180h-75v340h73l2 -60c25.333 45.333 66.333 68 123 68z" />
    <glyph glyph-name="zero.subs" unicode="&#x2080;" horiz-adv-x="459" 
d="M229 -190c-60 0 -105.667 19.333 -137 58s-47 94.667 -47 168s15.667 129.333 47 168s77 58 137 58c60.667 0 106.667 -19.333 138 -58s47 -94.667 47 -168s-15.667 -129.333 -47 -168s-77.333 -58 -138 -58zM153 -83c16 -24 41.333 -36.001 76 -36.001
c34 0 59.667 12 77 36c16.667 24.667 25 64.334 25 119.001s-8.33301 94.334 -25 119.001c-17.333 24 -43 36 -77 36c-34.667 0 -60 -12 -76 -36c-16.667 -24.667 -25 -64.334 -25 -119.001c0 -56 8.33301 -95.667 25 -119z" />
    <glyph glyph-name="one.subs" unicode="&#x2081;" horiz-adv-x="300" 
d="M220 -174h-77v297h-103v59h35c46 0 72 17.667 78 53l3 18h64v-427z" />
    <glyph glyph-name="two.subs" unicode="&#x2082;" horiz-adv-x="431" 
d="M380 -174h-330c0 90 35 152 105 186l85 41c40.667 20 61 45.333 61 76c0 43.333 -27.333 65 -82 65c-29.333 0 -50 -6.5 -62 -19.5s-18.667 -33.833 -20 -62.5h-80c1.33301 47.333 15.833 84.166 43.5 110.499s67.167 39.5 118.5 39.5
c49.333 0 88.666 -11.833 117.999 -35.5s44 -56.167 44 -97.5c0 -30 -8.5 -55.667 -25.5 -77s-43.833 -40.666 -80.5 -57.999l-52 -25c-27.333 -13.333 -46.666 -25 -57.999 -35s-18.333 -23 -21 -39h236v-69z" />
    <glyph glyph-name="three.subs" unicode="&#x2083;" horiz-adv-x="445" 
d="M223 -190c-54 0 -96.333 12.335 -127 37.002s-46 59.667 -46 105h80c2 -51.333 33.333 -77 94 -77s91 22.333 91 67c0 43.333 -30 65 -90 65h-39v69h39c50 0 75 19.667 75 59c0 41.333 -27.667 62 -83 62c-54.667 0 -83.334 -22.333 -86.001 -67h-80
c0 41.333 14.833 73.666 44.5 96.999s69.834 35 120.501 35s90.667 -10.833 120 -32.5s44 -50.834 44 -87.501c0 -23.333 -6 -43.333 -18 -60s-28.667 -28 -50 -34v-2c26 -7.33301 46.333 -20.333 61 -39s22 -41 22 -67c0 -38.667 -15.667 -70 -47 -94s-73 -36 -125 -36z
" />
    <glyph glyph-name="four.subs" unicode="&#x2084;" horiz-adv-x="460" 
d="M334 -174h-77v98l-207 -2v67l202 264h82v-271l76 2v-62l-76 2v-98zM253 163l-135 -179l139 -2v181h-4z" />
    <glyph glyph-name="five.subs" unicode="&#x2085;" horiz-adv-x="446" 
d="M220 -191c-91.333 0 -147.666 34.668 -168.999 104.001l79 17c12.667 -36.667 43 -55 91 -55c30 0 53.333 7.16699 70 21.5s25 34.166 25 59.499c0 26 -8.33301 46.667 -25 62s-40 23 -70 23c-34 0 -60.333 -10.333 -79 -31l-80 17l43 226h259v-66h-204l-18 -108l2 -2
c25.333 17.333 57.333 26 96 26c49.333 0 87.666 -13.167 114.999 -39.5s41 -60.833 41 -103.5c0 -44.667 -15.5 -81 -46.5 -109s-74.167 -42 -129.5 -42z" />
    <glyph glyph-name="six.subs" unicode="&#x2086;" horiz-adv-x="448" 
d="M229 -190c-59.333 0 -103.999 18.5 -133.999 55.5s-45 90.167 -45 159.5c0 76 15.667 134.5 47 175.5s76.666 61.5 135.999 61.5c38 0 70.333 -7.83301 97 -23.5s45.334 -37.5 56.001 -65.5l-76 -21c-14.667 30 -40.667 45 -78 45
c-66.667 0 -102.334 -47.333 -107.001 -142c26.667 30.667 66 46 118 46c47.333 0 85 -12.667 113 -38s42 -60 42 -104c0 -46 -15 -82.333 -45 -109s-71.333 -40 -124 -40zM230.001 -126c28.667 0 50.832 7.33301 66.499 22s23.5 34.667 23.5 60
c0 24.667 -7.66699 44.667 -23 60c-15.333 14.667 -37.666 22 -66.999 22s-52.333 -7 -69 -21c-17.333 -15.333 -26 -34.333 -26 -57c0 -27.333 8.66699 -48.5 26 -63.5s40.333 -22.5 69 -22.5z" />
    <glyph glyph-name="seven.subs" unicode="&#x2087;" horiz-adv-x="381" 
d="M177 -174l-81 -0.000976562c15.333 156 70.333 276.333 165 361h-236v66h331v-63c-54.667 -42.667 -96.167 -92.667 -124.5 -150s-46.5 -128.666 -54.5 -213.999z" />
    <glyph glyph-name="eight.subs" unicode="&#x2088;" horiz-adv-x="456" 
d="M360 -148c-32.667 -23.333 -76.667 -34.999 -132 -34.999s-99.333 11.667 -132 35c-32 22.667 -48 54.667 -48 96c0 26 8 48.667 24 68s37.667 32.666 65 39.999v2c-44.667 16.667 -67 47.334 -67 92.001c0 34.667 14.167 62 42.5 82s66.833 30 115.5 30
s87.167 -10 115.5 -30s42.5 -47.333 42.5 -82c0 -44.667 -22.333 -75.334 -67 -92.001v-2c28 -7.33301 49.833 -20.5 65.5 -39.5s23.5 -41.833 23.5 -68.5c0 -41.333 -16 -73.333 -48 -96zM147 143.001c0 -40 27 -60 81 -60s81 20 81 60c0 38.667 -27 58 -81 58
s-81 -19.333 -81 -58zM129 -47.999c0 -49.333 33 -74 99 -74s99 24.667 99 74c0 48 -33 72 -99 72s-99 -24 -99 -72z" />
    <glyph glyph-name="nine.subs" unicode="&#x2089;" horiz-adv-x="448" 
d="M215 -190c-38 0 -70.334 7.83301 -97.001 23.5s-45.334 37.5 -56.001 65.5l76 21c14.667 -30 40.667 -45 78 -45c66.667 0 102.334 47.333 107.001 142c-26.667 -30.667 -66 -46 -118 -46c-47.333 0 -85 12.667 -113 38s-42 60 -42 104c0 46 15 82.333 45 109
s71.333 40 124 40c59.333 0 104 -18.5 134 -55.5s45 -90.167 45 -159.5c0 -76 -15.667 -134.5 -47 -175.5s-76.666 -61.5 -135.999 -61.5zM151.999 56c14.667 -14.667 36.668 -22 66.001 -22s52.333 7.33301 69 22c17.333 14 26 32.667 26 56
c0 27.333 -8.66699 48.5 -26 63.5s-40.333 22.5 -69 22.5s-50.834 -7.33301 -66.501 -22s-23.5 -34.667 -23.5 -60s8 -45.333 24 -60z" />
    <glyph glyph-name="plus.subs" unicode="&#x208a;" horiz-adv-x="527" 
d="M299 63h172v-63h-172v-150h-69v150h-172v63h172v149h69v-149z" />
    <glyph glyph-name="minus.subs" unicode="&#x208b;" horiz-adv-x="517" 
d="M461 -3h-403v64h403v-64z" />
    <glyph glyph-name="equal.subs" unicode="&#x208c;" horiz-adv-x="517" 
d="M461 78h-403v63h403v-63zM461 -81h-403v64h403v-64z" />
    <glyph glyph-name="uni208D" unicode="&#x208d;" horiz-adv-x="305" 
d="M249 -309h-73c-74.667 91.333 -112 195 -112 311c0 120.667 37.333 226.334 112 317.001h73c-73.333 -93.333 -110 -199 -110 -317c0 -112.667 36.667 -216.334 110 -311.001z" />
    <glyph glyph-name="uni208E" unicode="&#x208e;" horiz-adv-x="305" 
d="M129 -309h-73c73.333 93.333 110 197 110 311c0 118.667 -36.667 224.334 -110 317.001h73c74.667 -90.667 112 -196.334 112 -317.001c0 -116 -37.333 -219.667 -112 -311z" />
    <glyph glyph-name="n.subs" unicode="&#x2099;" horiz-adv-x="488" 
d="M278 174c41.333 0 73.333 -11.5 96 -34.5s34 -55.5 34 -97.5v-216h-76v200c0 52.667 -26.333 79 -79 79c-30 0 -53.833 -9 -71.5 -27s-26.5 -42 -26.5 -72v-180h-75v340h73l2 -60c25.333 45.333 66.333 68 123 68z" />
    <glyph glyph-name="Euro" unicode="&#x20ac;" 
d="M481 642c-53.333 0 -98.667 -13.332 -136 -39.999s-65 -64 -83 -112h356v-81h-374c-2 -16 -3 -33 -3 -51c0 -4 0.666992 -20 2 -48h375v-81h-359c16.667 -51.333 43.334 -91.333 80.001 -120s83 -43 139 -43c49.333 0 96 9.33301 140 28v-87
c-42.667 -16 -90 -24 -142 -24c-80.667 0 -148.167 21.667 -202.5 65s-91.5 103.666 -111.5 180.999h-140v81h126c-1.33301 28 -2 44 -2 48c0 3.33301 0.666992 20.333 2 51h-126v81h141c20.667 73.333 58.167 130.833 112.5 172.5s120.833 62.5 199.5 62.5
c51.333 0 99 -8.33301 143 -25v-87c-44.667 19.333 -90.334 29 -137.001 29z" />
    <glyph glyph-name="uni20B8" unicode="&#x20b8;" horiz-adv-x="639" 
d="M35 631v81h569v-81h-569zM273 451h-238v81h569v-81h-238v-451h-93v451z" />
    <glyph glyph-name="uni20B9" unicode="&#x20b9;" 
d="M40 712l559.999 -0.00195312v-80h-245c27.333 -22 44.333 -51 51 -87h194v-80h-196c-7.33301 -31.333 -21.5 -58.166 -42.5 -80.499s-46.5 -37.5 -76.5 -45.5c29.333 -6 52.833 -18.667 70.5 -38s31.834 -47.333 42.501 -84l62 -217h-97l-55 198
c-10.667 37.333 -25.667 63.166 -45 77.499s-49 21.5 -89 21.5h-134v81h152c36 0 63.5 6.83301 82.5 20.5s31.167 35.834 36.5 66.501h-271v80h272c-4.66699 30.667 -16.5 52.834 -35.5 66.501s-47.167 20.5 -84.5 20.5h-152v80z" />
    <glyph glyph-name="uni20BA" unicode="&#x20ba;" 
d="M523 246l85.001 0.000976562c-10 -78.667 -41.667 -139.334 -95 -182.001s-122.333 -64 -207 -64h-134v228l-139 -73v88l139 73v101l-139 -73v88l139 73v207h92v-159l209 109v-88l-209 -109v-101l209 109v-88l-209 -109v-192h42c125.333 0 197.666 54 216.999 162z" />
    <glyph glyph-name="uni20BC" unicode="&#x20bc;" 
d="M366 712v-187.002c76.667 -1.33301 133.167 -22.666 169.5 -63.999s54.5 -103.666 54.5 -186.999v-274h-92v281c0 57.333 -10 98.666 -30 123.999s-54 40 -102 44v-338h-92v338c-48 -4.66699 -81.833 -19.5 -101.5 -44.5s-29.5 -66.167 -29.5 -123.5v-281h-92v274
c0 85.333 17.5 148.333 52.5 189s91.833 61.334 170.5 62.001v187h92z" />
    <glyph glyph-name="uni20BF" unicode="&#x20bf;" 
d="M606 207c0 -56 -15.5 -101.499 -46.5 -136.499s-75.167 -57.167 -132.5 -66.5v-148h-79v144h-90v-144h-79v144h-116v712h116v135h79v-135h90v135h79v-141c46.667 -9.33301 82.667 -28.333 108 -57s38 -65.667 38 -111c0 -75.333 -34.333 -127 -103 -155
c90.667 -26.667 136 -85.334 136 -176.001zM353 631.001h-197v-221h188c43.333 0 76.5 10 99.5 30s34.5 48.333 34.5 85c0 70.667 -41.667 106 -125 106zM156 81.001h208c98 0 147 42 147 126c0 83.333 -49 125 -147 125h-208v-251z" />
    <glyph glyph-name="uni2105" unicode="&#x2105;" horiz-adv-x="1167" 
d="M413 -15h-93l448 742h91zM266 364c-55.333 0 -99.332 16.5 -131.999 49.5s-49 76.833 -49 131.5c0 54 16.167 97.167 48.5 129.5s76.166 48.5 131.499 48.5c45.333 0 83 -10.5 113 -31.5s49 -49.167 57 -84.5l-73 -6c-12 38.667 -43 58 -93 58
c-70.667 0 -106 -38.333 -106 -115c0 -77.333 35.333 -116 106 -116c50 0 81 20 93 60l73 -6c-8 -36.667 -26.833 -65.5 -56.5 -86.5s-67.167 -31.5 -112.5 -31.5zM902.001 -16c-54.667 0 -98.333 16.999 -131 50.999c-33.333 33.333 -50 76.333 -50 129
s16.667 96.334 50 131.001c33.333 33.333 77 50 131 50c53.333 0 96.666 -16.667 129.999 -50c33.333 -34.667 50 -78.334 50 -131.001c0 -53.333 -16.667 -96.666 -50 -129.999s-76.666 -50 -129.999 -50zM902.002 47.999c32.667 0 57.833 9.83398 75.5 29.501
s26.5 48.5 26.5 86.5c0 78 -34 117 -102 117c-33.333 0 -59 -9.83301 -77 -29.5s-27 -48.834 -27 -87.501c0 -38 9 -66.833 27 -86.5s43.667 -29.5 77 -29.5z" />
    <glyph glyph-name="uni2113" unicode="&#x2113;" horiz-adv-x="507" 
d="M402 112l54 -59c-39.333 -46 -89.666 -69 -150.999 -69c-44.667 0 -79.5 11.833 -104.5 35.5s-37.5 57.5 -37.5 101.5v85l-90 -43l-33 75l123 47v300c0 93.333 46.667 140 140 140c50 0 87 -15 111 -45s36 -77.667 36 -143c0 -72 -15.333 -130.833 -46 -176.5
s-80.334 -83.5 -149.001 -113.5v-121c0 -41.333 19.667 -62 59 -62c34 0 63.333 16 88 48zM306 645c-34 0 -51 -22 -51 -66v-250c40 24 68.5 51.333 85.5 82s25.5 70.667 25.5 120c0 76 -20 114 -60 114z" />
    <glyph glyph-name="uni2116" unicode="&#x2116;" horiz-adv-x="1197" 
d="M967 725c53.333 0 96.668 -16.668 130.001 -50.001c33.333 -34.667 50 -78.334 50 -131.001c0 -53.333 -16.833 -96.666 -50.5 -129.999s-76.834 -50 -129.501 -50c-54 0 -97.667 17 -131 51c-33.333 33.333 -50 76.333 -50 129s16.667 96.334 50 131.001
c33.333 33.333 77 50 131 50zM188.002 711.999l375 -581v581h88v-712h-106l-372 578v-578h-88v712h103zM967.002 427.999c32.667 0 57.833 9.83398 75.5 29.501s26.5 48.5 26.5 86.5c0 78 -34 117 -102 117c-33.333 0 -59 -9.83301 -77 -29.5s-27 -48.834 -27 -87.501
c0 -38 9 -66.833 27 -86.5s43.667 -29.5 77 -29.5z" />
    <glyph glyph-name="uni2117" unicode="&#x2117;" horiz-adv-x="880" 
d="M170 624c70.667 70 160.668 105 270.001 105s199.333 -35 270 -105s106 -159.333 106 -268c0 -108 -35.333 -197 -106 -267c-70.667 -70.667 -160.667 -106 -270 -106c-108.667 0 -198.334 35.333 -269.001 106c-71.333 70 -107 159 -107 267
c0 108.667 35.333 198 106 268zM440.001 45c90.667 0 164.332 29.334 220.999 88.001c57.333 58.667 86 133 86 223c0 89.333 -28.667 163.666 -86 222.999c-58 58 -131.667 87 -221 87s-162.666 -29 -219.999 -87c-58 -58.667 -87 -133 -87 -223c0 -90.667 29 -165 87 -223
c56.667 -58.667 130 -88 220 -88zM318.999 547.001l158 0.000976562c37.333 0 67.333 -11.333 90 -34s34 -52 34 -88c0 -36.667 -12 -66.334 -36 -89.001s-55 -34 -93 -34h-83v-132h-70v377zM388.999 361.002h74c45.333 0 68 21.333 68 64c0 42 -22 63 -66 63h-76v-127z" />
    <glyph glyph-name="trademark" unicode="&#x2122;" horiz-adv-x="989" 
d="M235 330h-69v324h-116v58h301v-58h-116v-324zM526 330h-65v382h132l85 -346h12l81 346h138v-382h-70v346h-14l-81 -346h-120l-84 346h-14v-346z" />
    <glyph glyph-name="uni2126" unicode="&#x2126;" horiz-adv-x="820" 
d="M357 0l-293.001 0.000976562v80h170v2c-52 34 -92 77.167 -120 129.5s-42 109.833 -42 172.5c0 106 31.333 189.333 94 250c61.333 60.667 143 91 245 91c101.333 0 182.333 -30.333 243 -91s91 -144 91 -250c0 -62.667 -13.667 -120.334 -41 -173.001
s-66.666 -95.667 -117.999 -129v-2h170v-80h-292v72c124 68 186 172 186 312c0 83.333 -21.167 147.166 -63.5 191.499s-100.833 66.5 -175.5 66.5c-75.333 0 -134.833 -22.167 -178.5 -66.5s-65.5 -108.166 -65.5 -191.499c0 -138 63.333 -242 190 -312v-72z" />
    <glyph glyph-name="estimated" unicode="&#x212e;" horiz-adv-x="906" 
d="M453 724c80.667 0 152.497 -17.333 215.497 -52s110.167 -81 141.5 -139c30.667 -56.667 46 -119.667 46 -189h-643c-9.33301 0 -14 -4.33301 -14 -13v-175c0 -20.667 5.33301 -36 16 -46c64.667 -64 144 -96 238 -96c49.333 0 96.333 10.333 141 31
s81.334 48.667 110.001 84h73c-29.333 -41.333 -72.166 -75.333 -128.499 -102s-121.5 -40 -195.5 -40c-121.333 0 -218.666 34.333 -291.999 103c-74 69.333 -111 157.333 -111 264s36.667 195 110 265s171 105 293 105zM452.997 696
c-93.333 0 -172.666 -32.667 -237.999 -98c-10.667 -10 -16 -24.333 -16 -43v-175c0 -8.66699 4.66699 -13 14 -13h478c9.33301 0 14 4.33301 14 13v175c0 18.667 -5.33301 33 -16 43c-66.667 65.333 -145.334 98 -236.001 98z" />
    <glyph glyph-name="uni2153" unicode="&#x2153;" horiz-adv-x="1091" 
d="M265 321h-77v297h-103v59h35c46 0 72 17.667 78 53l3 18h64v-427zM303 -15h-93l448 742h91zM834 -16c-54 0 -96.333 12.335 -127 37.002s-46 59.667 -46 105h80c2 -51.333 33.333 -77 94 -77s91 22.333 91 67c0 43.333 -30 65 -90 65h-39v69h39c50 0 75 19.667 75 59
c0 41.333 -27.667 62 -83 62c-54.667 0 -83.334 -22.333 -86.001 -67h-80c0 41.333 14.833 73.666 44.5 96.999s69.834 35 120.501 35s90.667 -10.833 120 -32.5s44 -50.834 44 -87.501c0 -23.333 -6 -43.333 -18 -60s-28.667 -28 -50 -34v-2
c26 -7.33301 46.333 -20.333 61 -39s22 -41 22 -67c0 -38.667 -15.667 -70 -47 -94s-73 -36 -125 -36z" />
    <glyph glyph-name="uni2154" unicode="&#x2154;" horiz-adv-x="1233" 
d="M415 321h-330c0 90 35 152 105 186l85 41c40.667 20 61 45.333 61 76c0 43.333 -27.333 65 -82 65c-29.333 0 -50 -6.5 -62 -19.5s-18.667 -33.833 -20 -62.5h-80c1.33301 47.333 15.833 84.166 43.5 110.499s67.167 39.5 118.5 39.5
c49.333 0 88.666 -11.833 117.999 -35.5s44 -56.167 44 -97.5c0 -30 -8.5 -55.667 -25.5 -77s-43.833 -40.666 -80.5 -57.999l-52 -25c-27.333 -13.333 -46.666 -25 -57.999 -35s-18.333 -23 -21 -39h236v-69zM445 -15h-93l448 742h91zM976 -16
c-54 0 -96.333 12.335 -127 37.002s-46 59.667 -46 105h80c2 -51.333 33.333 -77 94 -77s91 22.333 91 67c0 43.333 -30 65 -90 65h-39v69h39c50 0 75 19.667 75 59c0 41.333 -27.667 62 -83 62c-54.667 0 -83.334 -22.333 -86.001 -67h-80
c0 41.333 14.833 73.666 44.5 96.999s69.834 35 120.501 35s90.667 -10.833 120 -32.5s44 -50.834 44 -87.501c0 -23.333 -6 -43.333 -18 -60s-28.667 -28 -50 -34v-2c26 -7.33301 46.333 -20.333 61 -39s22 -41 22 -67c0 -38.667 -15.667 -70 -47 -94s-73 -36 -125 -36z
" />
    <glyph glyph-name="uni2155" unicode="&#x2155;" horiz-adv-x="1106" 
d="M265 321h-77v297h-103v59h35c46 0 72 17.667 78 53l3 18h64v-427zM303 -15h-93l448 742h91zM845 -17c-91.333 0 -147.666 34.668 -168.999 104.001l79 17c12.667 -36.667 43 -55 91 -55c30 0 53.333 7.16699 70 21.5s25 34.166 25 59.499c0 26 -8.33301 46.667 -25 62
s-40 23 -70 23c-34 0 -60.333 -10.333 -79 -31l-80 17l43 226h259v-66h-204l-18 -108l2 -2c25.333 17.333 57.333 26 96 26c49.333 0 87.666 -13.167 114.999 -39.5s41 -60.833 41 -103.5c0 -44.667 -15.5 -81 -46.5 -109s-74.167 -42 -129.5 -42z" />
    <glyph glyph-name="uni2156" unicode="&#x2156;" horiz-adv-x="1229" 
d="M415 321h-330c0 90 35 152 105 186l85 41c40.667 20 61 45.333 61 76c0 43.333 -27.333 65 -82 65c-29.333 0 -50 -6.5 -62 -19.5s-18.667 -33.833 -20 -62.5h-80c1.33301 47.333 15.833 84.166 43.5 110.499s67.167 39.5 118.5 39.5
c49.333 0 88.666 -11.833 117.999 -35.5s44 -56.167 44 -97.5c0 -30 -8.5 -55.667 -25.5 -77s-43.833 -40.666 -80.5 -57.999l-52 -25c-27.333 -13.333 -46.666 -25 -57.999 -35s-18.333 -23 -21 -39h236v-69zM426 -15h-93l448 742h91zM968 -17
c-91.333 0 -147.666 34.668 -168.999 104.001l79 17c12.667 -36.667 43 -55 91 -55c30 0 53.333 7.16699 70 21.5s25 34.166 25 59.499c0 26 -8.33301 46.667 -25 62s-40 23 -70 23c-34 0 -60.333 -10.333 -79 -31l-80 17l43 226h259v-66h-204l-18 -108l2 -2
c25.333 17.333 57.333 26 96 26c49.333 0 87.666 -13.167 114.999 -39.5s41 -60.833 41 -103.5c0 -44.667 -15.5 -81 -46.5 -109s-74.167 -42 -129.5 -42z" />
    <glyph glyph-name="uni2157" unicode="&#x2157;" horiz-adv-x="1211" 
d="M258 305c-54 0 -96.333 12.335 -127 37.002s-46 59.667 -46 105h80c2 -51.333 33.333 -77 94 -77s91 22.333 91 67c0 43.333 -30 65 -90 65h-39v69h39c50 0 75 19.667 75 59c0 41.333 -27.667 62 -83 62c-54.667 0 -83.334 -22.333 -86.001 -67h-80
c0 41.333 14.833 73.666 44.5 96.999s69.834 35 120.501 35s90.667 -10.833 120 -32.5s44 -50.834 44 -87.501c0 -23.333 -6 -43.333 -18 -60s-28.667 -28 -50 -34v-2c26 -7.33301 46.333 -20.333 61 -39s22 -41 22 -67c0 -38.667 -15.667 -70 -47 -94s-73 -36 -125 -36z
M408 -14.998h-93l448 742h91zM950 -16.998c-91.333 0 -147.666 34.668 -168.999 104.001l79 17c12.667 -36.667 43 -55 91 -55c30 0 53.333 7.16699 70 21.5s25 34.166 25 59.499c0 26 -8.33301 46.667 -25 62s-40 23 -70 23c-34 0 -60.333 -10.333 -79 -31l-80 17l43 226
h259v-66h-204l-18 -108l2 -2c25.333 17.333 57.333 26 96 26c49.333 0 87.666 -13.167 114.999 -39.5s41 -60.833 41 -103.5c0 -44.667 -15.5 -81 -46.5 -109s-74.167 -42 -129.5 -42z" />
    <glyph glyph-name="uni2158" unicode="&#x2158;" horiz-adv-x="1249" 
d="M369 321h-77v98l-207 -2v67l202 264h82v-271l76 2v-62l-76 2v-98zM446 -15h-93l448 742h91zM288 658l-135 -179l139 -2v181h-4zM988 -17c-91.333 0 -147.666 34.668 -168.999 104.001l79 17c12.667 -36.667 43 -55 91 -55c30 0 53.333 7.16699 70 21.5
s25 34.166 25 59.499c0 26 -8.33301 46.667 -25 62s-40 23 -70 23c-34 0 -60.333 -10.333 -79 -31l-80 17l43 226h259v-66h-204l-18 -108l2 -2c25.333 17.333 57.333 26 96 26c49.333 0 87.666 -13.167 114.999 -39.5s41 -60.833 41 -103.5c0 -44.667 -15.5 -81 -46.5 -109
s-74.167 -42 -129.5 -42z" />
    <glyph glyph-name="uni2159" unicode="&#x2159;" horiz-adv-x="1067" 
d="M265 321h-77v297h-103v59h35c46 0 72 17.667 78 53l3 18h64v-427zM303 -15h-93l448 742h91zM813 -16c-59.333 0 -103.999 18.5 -133.999 55.5s-45 90.167 -45 159.5c0 76 15.667 134.5 47 175.5s76.666 61.5 135.999 61.5c38 0 70.333 -7.83301 97 -23.5
s45.334 -37.5 56.001 -65.5l-76 -21c-14.667 30 -40.667 45 -78 45c-66.667 0 -102.334 -47.333 -107.001 -142c26.667 30.667 66 46 118 46c47.333 0 85 -12.667 113 -38s42 -60 42 -104c0 -46 -15 -82.333 -45 -109s-71.333 -40 -124 -40zM814.001 48
c28.667 0 50.832 7.33301 66.499 22s23.5 34.667 23.5 60c0 24.667 -7.66699 44.667 -23 60c-15.333 14.667 -37.666 22 -66.999 22s-52.333 -7 -69 -21c-17.333 -15.333 -26 -34.333 -26 -57c0 -27.333 8.66699 -48.5 26 -63.5s40.333 -22.5 69 -22.5z" />
    <glyph glyph-name="uni215A" unicode="&#x215a;" horiz-adv-x="1166" 
d="M254 304c-91.333 0 -147.666 34.668 -168.999 104.001l79 17c12.667 -36.667 43 -55 91 -55c30 0 53.333 7.16699 70 21.5s25 34.166 25 59.499c0 26 -8.33301 46.667 -25 62s-40 23 -70 23c-34 0 -60.333 -10.333 -79 -31l-80 17l43 226h259v-66h-204l-18 -108l2 -2
c25.333 17.333 57.333 26 96 26c49.333 0 87.666 -13.167 114.999 -39.5s41 -60.833 41 -103.5c0 -44.667 -15.5 -81 -46.5 -109s-74.167 -42 -129.5 -42zM402 -14.999h-93l448 742h91zM912 -15.999c-59.333 0 -103.999 18.5 -133.999 55.5s-45 90.167 -45 159.5
c0 76 15.667 134.5 47 175.5s76.666 61.5 135.999 61.5c38 0 70.333 -7.83301 97 -23.5s45.334 -37.5 56.001 -65.5l-76 -21c-15.333 30 -41.333 45 -78 45c-66.667 0 -102.334 -47.333 -107.001 -142c26.667 30.667 66 46 118 46c47.333 0 85 -12.667 113 -38
s42 -60 42 -104c0 -46 -15 -82.333 -45 -109s-71.333 -40 -124 -40zM913.001 48.001c28.667 0 50.832 7.33301 66.499 22s23.5 34.667 23.5 60c0 24.667 -7.66699 44.667 -23 60c-15.333 14.667 -37.666 22 -66.999 22c-28.667 0 -51.667 -7 -69 -21
c-17.333 -15.333 -26 -34.333 -26 -57c0 -27.333 8.66699 -48.5 26 -63.5s40.333 -22.5 69 -22.5z" />
    <glyph glyph-name="oneeighth" unicode="&#x215b;" horiz-adv-x="1090" 
d="M265 321h-77v297h-103v59h35c46 0 72 17.667 78 53l3 18h64v-427zM303 -15h-93l448 742h91zM957 26c-32.667 -23.333 -76.667 -34.999 -132 -34.999s-99.333 11.667 -132 35c-32 22.667 -48 54.667 -48 96c0 26 8 48.667 24 68s37.667 32.666 65 39.999v2
c-44.667 16.667 -67 47.334 -67 92.001c0 34.667 14.167 62 42.5 82s66.833 30 115.5 30s87.167 -10 115.5 -30s42.5 -47.333 42.5 -82c0 -44.667 -22.333 -75.334 -67 -92.001v-2c28 -7.33301 49.833 -20.5 65.5 -39.5s23.5 -41.833 23.5 -68.5
c0 -41.333 -16 -73.333 -48 -96zM744 317.001c0 -40 27 -60 81 -60s81 20 81 60c0 38.667 -27 58 -81 58s-81 -19.333 -81 -58zM726 126.001c0 -49.333 33 -74 99 -74s99 24.667 99 74c0 48 -33 72 -99 72s-99 -24 -99 -72z" />
    <glyph glyph-name="threeeighths" unicode="&#x215c;" horiz-adv-x="1195" 
d="M258 305c-54 0 -96.333 12.335 -127 37.002s-46 59.667 -46 105h80c2 -51.333 33.333 -77 94 -77s91 22.333 91 67c0 43.333 -30 65 -90 65h-39v69h39c50 0 75 19.667 75 59c0 41.333 -27.667 62 -83 62c-54.667 0 -83.334 -22.333 -86.001 -67h-80
c0 41.333 14.833 73.666 44.5 96.999s69.834 35 120.501 35s90.667 -10.833 120 -32.5s44 -50.834 44 -87.501c0 -23.333 -6 -43.333 -18 -60s-28.667 -28 -50 -34v-2c26 -7.33301 46.333 -20.333 61 -39s22 -41 22 -67c0 -38.667 -15.667 -70 -47 -94s-73 -36 -125 -36z
M408 -14.998h-93l448 742h91zM1062 26.002c-32.667 -23.333 -76.667 -34.999 -132 -34.999s-99.333 11.667 -132 35c-32 22.667 -48 54.667 -48 96c0 26 8 48.667 24 68s37.667 32.666 65 39.999v2c-44.667 16.667 -67 47.334 -67 92.001c0 34.667 14.167 62 42.5 82
s66.833 30 115.5 30s87.167 -10 115.5 -30s42.5 -47.333 42.5 -82c0 -44.667 -22.333 -75.334 -67 -92.001v-2c28 -7.33301 49.833 -20.5 65.5 -39.5s23.5 -41.833 23.5 -68.5c0 -41.333 -16 -73.333 -48 -96zM849 317.003c0 -40 27 -60 81 -60s81 20 81 60
c0 38.667 -27 58 -81 58s-81 -19.333 -81 -58zM831 126.003c0 -49.333 33 -74 99 -74s99 24.667 99 74c0 48 -33 72 -99 72s-99 -24 -99 -72z" />
    <glyph glyph-name="fiveeighths" unicode="&#x215d;" horiz-adv-x="1189" 
d="M254 304c-91.333 0 -147.666 34.668 -168.999 104.001l79 17c12.667 -36.667 43 -55 91 -55c30 0 53.333 7.16699 70 21.5s25 34.166 25 59.499c0 26 -8.33301 46.667 -25 62s-40 23 -70 23c-34 0 -60.333 -10.333 -79 -31l-80 17l43 226h259v-66h-204l-18 -108l2 -2
c25.333 17.333 57.333 26 96 26c49.333 0 87.666 -13.167 114.999 -39.5s41 -60.833 41 -103.5c0 -44.667 -15.5 -81 -46.5 -109s-74.167 -42 -129.5 -42zM402 -14.999h-93l448 742h91zM1056 26.001c-32.667 -23.333 -76.667 -34.999 -132 -34.999s-99.333 11.667 -132 35
c-32 22.667 -48 54.667 -48 96c0 26 8 48.667 24 68s37.667 32.666 65 39.999v2c-44.667 16.667 -67 47.334 -67 92.001c0 34.667 14.167 62 42.5 82s66.833 30 115.5 30s87.167 -10 115.5 -30s42.5 -47.333 42.5 -82c0 -44.667 -22.333 -75.334 -67 -92.001v-2
c28 -7.33301 49.833 -20.5 65.5 -39.5s23.5 -41.833 23.5 -68.5c0 -41.333 -16 -73.333 -48 -96zM843 317.002c0 -40 27 -60 81 -60s81 20 81 60c0 38.667 -27 58 -81 58s-81 -19.333 -81 -58zM825 126.002c0 -49.333 33 -74 99 -74s99 24.667 99 74c0 48 -33 72 -99 72
s-99 -24 -99 -72z" />
    <glyph glyph-name="seveneighths" unicode="&#x215e;" horiz-adv-x="1092" 
d="M237 321l-81 -0.000976562c15.333 156 70.333 276.333 165 361h-236v66h331v-63c-54.667 -42.667 -96.167 -92.667 -124.5 -150s-46.5 -128.666 -54.5 -213.999zM305 -15.001h-93l448 742h91zM959 25.999c-32.667 -23.333 -76.667 -34.999 -132 -34.999
s-99.333 11.667 -132 35c-32 22.667 -48 54.667 -48 96c0 26 8 48.667 24 68s37.667 32.666 65 39.999v2c-44.667 16.667 -67 47.334 -67 92.001c0 34.667 14.167 62 42.5 82s66.833 30 115.5 30s87.167 -10 115.5 -30s42.5 -47.333 42.5 -82
c0 -44.667 -22.333 -75.334 -67 -92.001v-2c28 -7.33301 49.833 -20.5 65.5 -39.5s23.5 -41.833 23.5 -68.5c0 -41.333 -16 -73.333 -48 -96zM746 317c0 -40 27 -60 81 -60s81 20 81 60c0 38.667 -27 58 -81 58s-81 -19.333 -81 -58zM728 126c0 -49.333 33 -74 99 -74
s99 24.667 99 74c0 48 -33 72 -99 72s-99 -24 -99 -72z" />
    <glyph glyph-name="arrowleft" unicode="&#x2190;" horiz-adv-x="856" 
d="M203 402h589v-92h-589l113 -145l124 -165h-107l-269 356l269 356h107l-124 -165z" />
    <glyph glyph-name="arrowup" unicode="&#x2191;" horiz-adv-x="812" 
d="M50 459l356 269l356 -269v-107l-165 124l-145 114v-590h-92v591l-145 -115l-165 -124v107z" />
    <glyph glyph-name="arrowright" unicode="&#x2192;" horiz-adv-x="856" 
d="M416 712h107l269 -356l-269 -356h-107l124 165l113 145h-589v92h589l-113 145z" />
    <glyph glyph-name="arrowdown" unicode="&#x2193;" horiz-adv-x="812" 
d="M452 123l145 113l165 124v-107l-356 -269l-356 269v107l165 -124l145 -113v589h92v-589z" />
    <glyph glyph-name="arrowboth" unicode="&#x2194;" horiz-adv-x="1177" 
d="M737 712h107l269 -356l-269 -356h-107l124 165l113 145h-771l113 -145l124 -165h-107l-269 356l269 356h107l-124 -165l-113 -145h771l-113 145z" />
    <glyph glyph-name="arrowupdn" unicode="&#x2195;" horiz-adv-x="812" 
d="M762 522l-165 124l-145 113v-772l145 113l165 124v-107l-356 -269l-356 269v107l165 -124l145 -113v772l-145 -113l-165 -124v107l356 269l356 -269v-107z" />
    <glyph glyph-name="uni2196" unicode="&#x2196;" horiz-adv-x="726" 
d="M195 581l511 -515l-66 -66l-512 515l5 -188v-293h-93v634h634v-92h-283z" />
    <glyph glyph-name="uni2197" unicode="&#x2197;" horiz-adv-x="726" 
d="M52 576v92h634v-634h-93v293l5 188l-512 -515l-66 66l511 515l-196 -5h-283z" />
    <glyph glyph-name="uni2198" unicode="&#x2198;" horiz-adv-x="726" 
d="M593 341v293h93v-634h-634v92h283l196 -5l-511 515l66 66l512 -515z" />
    <glyph glyph-name="uni2199" unicode="&#x2199;" horiz-adv-x="726" 
d="M706 602l-511 -515l196 5h283v-92h-634v634h93v-293l-5 -188l512 515z" />
    <glyph glyph-name="partialdiff" unicode="&#x2202;" horiz-adv-x="588" 
d="M272 721c168 0 252 -120.666 252 -361.999c0 -247.333 -80.667 -371 -242 -371c-67.333 0 -120.5 20.667 -159.5 62s-58.5 96.333 -58.5 165c0 70 19.5 125.5 58.5 166.5s91.5 61.5 157.5 61.5c57.333 0 107.666 -18 150.999 -54
c-4.66699 89.333 -20.167 153.666 -46.5 192.999s-65.833 59 -118.5 59c-41.333 0 -82.666 -10 -123.999 -30l-31 74c51.333 24 105 36 161 36zM286 66.001c45.333 0 79.667 17.499 103 52.499s37.333 90.5 42 166.5c-35.333 54 -83.333 81 -144 81
c-40.667 0 -72.667 -13 -96 -39s-35 -63 -35 -111c0 -47.333 11.5 -84.166 34.5 -110.499s54.833 -39.5 95.5 -39.5z" />
    <glyph glyph-name="uni2206" unicode="&#x2206;" horiz-adv-x="716" 
d="M306 712h105l275 -712h-656zM336 560l-177 -479h395l-171 479l-23 71z" />
    <glyph glyph-name="product" unicode="&#x220f;" horiz-adv-x="733" 
d="M85 712h563v-916h-93v831h-377v-831h-93v916z" />
    <glyph glyph-name="summation" unicode="&#x2211;" horiz-adv-x="679" 
d="M471 259l-289 -375h433v-88h-551v78l298 385l-285 375v78h526v-88h-408z" />
    <glyph glyph-name="minus" unicode="&#x2212;" 
d="M585 270h-529v80h529v-80z" />
    <glyph glyph-name="uni2215" unicode="&#x2215;" horiz-adv-x="355" 
d="M1 -15h-93l448 742h91z" />
    <glyph glyph-name="uni2219" unicode="&#x2219;" horiz-adv-x="356" 
d="M276 190h-196v175h196v-175z" />
    <glyph glyph-name="radical" unicode="&#x221a;" 
d="M428 -204h-133l-114 308l-99 -38l-27 75l179 66l120 -336l181 876h89z" />
    <glyph glyph-name="infinity" unicode="&#x221e;" horiz-adv-x="780" 
d="M204 181c-46.667 0 -83.998 15.001 -111.998 45.001s-42 68.667 -42 116c0 48 14.167 87.167 42.5 117.5s64.5 45.5 108.5 45.5c58 0 121 -37.667 189 -113c38 41.333 70.333 70.666 97 87.999s56 26 88 26c45.333 0 82.5 -15.167 111.5 -45.5
s43.5 -69.166 43.5 -116.499c0 -48.667 -14.333 -88.334 -43 -119.001s-66 -46 -112 -46c-58.667 0 -120.334 36.333 -185.001 109c-40 -39.333 -73.333 -67 -100 -83s-55.334 -24 -86.001 -24zM578.002 254.001c23.333 0 41.998 7.83203 55.998 23.499s21 36.834 21 63.501
c0 28 -7.16699 50 -21.5 66s-34.166 24 -59.499 24c-37.333 0 -82.666 -30.333 -135.999 -91c49.333 -57.333 96 -86 140 -86zM204 256c43.333 0 89 28 137 84c-54 60 -100.667 90 -140 90c-22.667 0 -41 -8.33301 -55 -25s-21 -38 -21 -64
c0 -25.333 7.16699 -45.833 21.5 -61.5s33.5 -23.5 57.5 -23.5z" />
    <glyph glyph-name="integral" unicode="&#x222b;" 
d="M211 -204h-25v77h23c24.667 0 41.667 4.66699 51 14s14 26.333 14 51v654c0 54 12.333 93.333 37 118s64 37 118 37h25v-77h-23c-24.667 0 -41.667 -4.66699 -51 -14s-14 -26.333 -14 -51v-654c0 -54 -12.333 -93.333 -37 -118s-64 -37 -118 -37z" />
    <glyph glyph-name="approxequal" unicode="&#x2248;" 
d="M142 354l-80.001 0.00292969c0 56.667 12.667 100.167 38 130.5s59.666 45.5 102.999 45.5c26 1.33301 54.833 -6.33398 86.5 -23.001s60.834 -33.334 87.501 -50.001s47 -24.334 61 -23.001c40 0 60 32 60 96h80c0 -56 -12.667 -99.333 -38 -130
s-59.666 -46 -102.999 -46c-46 0 -89.333 16.333 -130 49c-42.667 32 -77.667 48 -105 48c-40 0 -60 -32.333 -60 -97zM141.999 104.003l-80.001 0.00292969c0 56.667 12.667 100.167 38 130.5s59.666 45.5 102.999 45.5c26 1.33301 54.833 -6.33398 86.5 -23.001
s60.834 -33.334 87.501 -50.001s47 -24.334 61 -23.001c40 0 60 32 60 96h80c0 -56 -12.667 -99.333 -38 -130s-59.666 -46 -102.999 -46c-46 0 -89.333 16.333 -130 49c-42.667 32 -77.667 48 -105 48c-40 0 -60 -32.333 -60 -97z" />
    <glyph glyph-name="notequal" unicode="&#x2260;" 
d="M585 459v-80h-189l-62 -139h251v-80h-287l-86 -194l-59 22l77 172h-174v80h209l62 139h-271v80h307l86 193l59 -22l-76 -171h153z" />
    <glyph glyph-name="lessequal" unicode="&#x2264;" 
d="M56 412l529 168v-90l-442 -127l442 -126v-90l-529 167v98zM585 0h-529v80h529v-80z" />
    <glyph glyph-name="greaterequal" unicode="&#x2265;" 
d="M56 490v90l529 -168v-98l-529 -167v90l442 126zM585 0h-529v80h529v-80z" />
    <glyph glyph-name="uni2460" unicode="&#x2460;" horiz-adv-x="1136" 
d="M929 31c-94 -93.333 -214.333 -140 -361 -140s-267 46.667 -361 140c-95.333 93.333 -143 210.333 -143 351c0 141.333 47.667 258.666 143 351.999c94.667 92.667 215 139 361 139s266.333 -46.333 361 -139c95.333 -93.333 143 -210.666 143 -351.999
c0 -140.667 -47.667 -257.667 -143 -351zM272 88c78 -78 176.668 -117 296.001 -117c118.667 0 217.667 39 297 117c78 77.333 117 175.333 117 294s-39 217 -117 295c-79.333 77.333 -178.333 116 -297 116s-217.334 -38.667 -296.001 -116
c-78.667 -78 -118 -176.333 -118 -295c0 -119.333 39.333 -217.333 118 -294zM628.001 167h-77v297h-103v59h35c46 0 72 17.667 78 53l3 18h64v-427z" />
    <glyph glyph-name="uni2461" unicode="&#x2461;" horiz-adv-x="1136" 
d="M929 31c-94 -93.333 -214.333 -140 -361 -140s-267 46.667 -361 140c-95.333 93.333 -143 210.333 -143 351c0 141.333 47.667 258.666 143 351.999c94.667 92.667 215 139 361 139s266.333 -46.333 361 -139c95.333 -93.333 143 -210.666 143 -351.999
c0 -140.667 -47.667 -257.667 -143 -351zM272 88c78 -78 176.668 -117 296.001 -117c118.667 0 217.667 39 297 117c78 77.333 117 175.333 117 294s-39 217 -117 295c-79.333 77.333 -178.333 116 -297 116s-217.334 -38.667 -296.001 -116
c-78.667 -78 -118 -176.333 -118 -295c0 -119.333 39.333 -217.333 118 -294zM737.001 180h-330c0 90 35 152 105 186l85 41c40.667 20 61 45.333 61 76c0 43.333 -27.333 65 -82 65c-29.333 0 -50 -6.5 -62 -19.5s-18.667 -33.833 -20 -62.5h-80
c1.33301 47.333 15.833 84.166 43.5 110.499s67.167 39.5 118.5 39.5c49.333 0 88.666 -11.833 117.999 -35.5s44 -56.167 44 -97.5c0 -30 -8.5 -55.667 -25.5 -77s-43.833 -40.666 -80.5 -57.999l-52 -25c-27.333 -13.333 -46.666 -25 -57.999 -35s-18.333 -23 -21 -39h236
v-69z" />
    <glyph glyph-name="uni2462" unicode="&#x2462;" horiz-adv-x="1136" 
d="M929 31c-94 -93.333 -214.333 -140 -361 -140s-267 46.667 -361 140c-95.333 93.333 -143 210.333 -143 351c0 141.333 47.667 258.666 143 351.999c94.667 92.667 215 139 361 139s266.333 -46.333 361 -139c95.333 -93.333 143 -210.666 143 -351.999
c0 -140.667 -47.667 -257.667 -143 -351zM272 88c78 -78 176.668 -117 296.001 -117c118.667 0 217.667 39 297 117c78 77.333 117 175.333 117 294s-39 217 -117 295c-79.333 77.333 -178.333 116 -297 116s-217.334 -38.667 -296.001 -116
c-78.667 -78 -118 -176.333 -118 -295c0 -119.333 39.333 -217.333 118 -294zM575.001 159c-54 0 -96.333 12.335 -127 37.002s-46 59.667 -46 105h80c2 -51.333 33.333 -77 94 -77s91 22.333 91 67c0 43.333 -30 65 -90 65h-39v69h39c50 0 75 19.667 75 59
c0 41.333 -27.667 62 -83 62c-54.667 0 -83.334 -22.333 -86.001 -67h-80c0 41.333 14.833 73.666 44.5 96.999s69.834 35 120.501 35s90.667 -10.833 120 -32.5s44 -50.834 44 -87.501c0 -23.333 -6 -43.333 -18 -60s-28.667 -28 -50 -34v-2
c26 -7.33301 46.333 -20.333 61 -39s22 -41 22 -67c0 -38.667 -15.667 -70 -47 -94s-73 -36 -125 -36z" />
    <glyph glyph-name="uni2463" unicode="&#x2463;" horiz-adv-x="1136" 
d="M929 31c-94 -93.333 -214.333 -140 -361 -140s-267 46.667 -361 140c-95.333 93.333 -143 210.333 -143 351c0 141.333 47.667 258.666 143 351.999c94.667 92.667 215 139 361 139s266.333 -46.333 361 -139c95.333 -93.333 143 -210.666 143 -351.999
c0 -140.667 -47.667 -257.667 -143 -351zM272 88c78 -78 176.668 -117 296.001 -117c118.667 0 217.667 39 297 117c78 77.333 117 175.333 117 294s-39 217 -117 295c-79.333 77.333 -178.333 116 -297 116s-217.334 -38.667 -296.001 -116
c-78.667 -78 -118 -176.333 -118 -295c0 -119.333 39.333 -217.333 118 -294zM667.001 180h-77v98l-207 -2v67l202 264h82v-271l76 2v-62l-76 2v-98zM451.001 338l139 -2v181h-4z" />
    <glyph glyph-name="uni2464" unicode="&#x2464;" horiz-adv-x="1136" 
d="M929 31c-94 -93.333 -214.333 -140 -361 -140s-267 46.667 -361 140c-95.333 93.333 -143 210.333 -143 351c0 141.333 47.667 258.666 143 351.999c94.667 92.667 215 139 361 139s266.333 -46.333 361 -139c95.333 -93.333 143 -210.666 143 -351.999
c0 -140.667 -47.667 -257.667 -143 -351zM272 88c78 -78 176.668 -117 296.001 -117c118.667 0 217.667 39 297 117c78 77.333 117 175.333 117 294s-39 217 -117 295c-79.333 77.333 -178.333 116 -297 116s-217.334 -38.667 -296.001 -116
c-78.667 -78 -118 -176.333 -118 -295c0 -119.333 39.333 -217.333 118 -294zM572.001 159c-91.333 0 -147.666 34.668 -168.999 104.001l79 17c12.667 -36.667 43 -55 91 -55c30 0 53.333 7.16699 70 21.5s25 34.166 25 59.499c0 26 -8.33301 46.667 -25 62s-40 23 -70 23
c-34 0 -60.333 -10.333 -79 -31l-80 17l43 226h259v-66h-204l-18 -108l2 -2c25.333 17.333 57.333 26 96 26c49.333 0 87.666 -13.167 114.999 -39.5s41 -60.833 41 -103.5c0 -44.667 -15.5 -81 -46.5 -109s-74.167 -42 -129.5 -42z" />
    <glyph glyph-name="uni2465" unicode="&#x2465;" horiz-adv-x="1136" 
d="M929 31c-94 -93.333 -214.333 -140 -361 -140s-267 46.667 -361 140c-95.333 93.333 -143 210.333 -143 351c0 141.333 47.667 258.666 143 351.999c94.667 92.667 215 139 361 139s266.333 -46.333 361 -139c95.333 -93.333 143 -210.666 143 -351.999
c0 -140.667 -47.667 -257.667 -143 -351zM272 88c78 -78 176.668 -117 296.001 -117c118.667 0 217.667 39 297 117c78 77.333 117 175.333 117 294s-39 217 -117 295c-79.333 77.333 -178.333 116 -297 116s-217.334 -38.667 -296.001 -116
c-78.667 -78 -118 -176.333 -118 -295c0 -119.333 39.333 -217.333 118 -294zM577.001 167c-59.333 0 -103.999 18.5 -133.999 55.5s-45 90.167 -45 159.5c0 76 15.667 134.5 47 175.5s76.666 61.5 135.999 61.5c38 0 70.333 -7.83301 97 -23.5s45.334 -37.5 56.001 -65.5
l-76 -21c-14.667 30 -40.667 45 -78 45c-66.667 0 -102.334 -47.333 -107.001 -142c26.667 30.667 66 46 118 46c47.333 0 85 -12.667 113 -38s42 -60 42 -104c0 -46 -15 -82.333 -45 -109s-71.333 -40 -124 -40zM578.002 231c28.667 0 50.832 7.33301 66.499 22
s23.5 34.667 23.5 60c0 24.667 -7.66699 44.667 -23 60c-15.333 14.667 -37.666 22 -66.999 22s-52.333 -7 -69 -21c-17.333 -15.333 -26 -34.333 -26 -57c0 -27.333 8.66699 -48.5 26 -63.5s40.333 -22.5 69 -22.5z" />
    <glyph glyph-name="uni2466" unicode="&#x2466;" horiz-adv-x="1136" 
d="M929 31c-94 -93.333 -214.333 -140 -361 -140s-267 46.667 -361 140c-95.333 93.333 -143 210.333 -143 351c0 141.333 47.667 258.666 143 351.999c94.667 92.667 215 139 361 139s266.333 -46.333 361 -139c95.333 -93.333 143 -210.666 143 -351.999
c0 -140.667 -47.667 -257.667 -143 -351zM272 88c78 -78 176.668 -117 296.001 -117c118.667 0 217.667 39 297 117c78 77.333 117 175.333 117 294s-39 217 -117 295c-79.333 77.333 -178.333 116 -297 116s-217.334 -38.667 -296.001 -116
c-78.667 -78 -118 -176.333 -118 -295c0 -119.333 39.333 -217.333 118 -294zM571.001 162l-81 -0.000976562c15.333 156 70.333 276.333 165 361h-236v66h331v-63c-54.667 -42.667 -96.167 -92.667 -124.5 -150s-46.5 -128.666 -54.5 -213.999z" />
    <glyph glyph-name="uni2467" unicode="&#x2467;" horiz-adv-x="1136" 
d="M929 31c-94 -93.333 -214.333 -140 -361 -140s-267 46.667 -361 140c-95.333 93.333 -143 210.333 -143 351c0 141.333 47.667 258.666 143 351.999c94.667 92.667 215 139 361 139s266.333 -46.333 361 -139c95.333 -93.333 143 -210.666 143 -351.999
c0 -140.667 -47.667 -257.667 -143 -351zM272 88c78 -78 176.668 -117 296.001 -117c118.667 0 217.667 39 297 117c78 77.333 117 175.333 117 294s-39 217 -117 295c-79.333 77.333 -178.333 116 -297 116s-217.334 -38.667 -296.001 -116
c-78.667 -78 -118 -176.333 -118 -295c0 -119.333 39.333 -217.333 118 -294zM700.001 201c-32.667 -23.333 -76.667 -34.999 -132 -34.999s-99.333 11.667 -132 35c-32 23.333 -48 55.333 -48 96c0 26 8 48.667 24 68s37.667 32.666 65 39.999v2
c-44.667 16.667 -67 47.334 -67 92.001c0 34.667 14.167 62 42.5 82s66.833 30 115.5 30s87.167 -10 115.5 -30s42.5 -47.333 42.5 -82c0 -44.667 -22.333 -75.334 -67 -92.001v-2c28 -7.33301 49.833 -20.5 65.5 -39.5s23.5 -41.833 23.5 -68.5
c0 -40.667 -16 -72.667 -48 -96zM487.001 492.001c0 -40 27 -60 81 -60s81 20 81 60c0 38.667 -27 58 -81 58s-81 -19.333 -81 -58zM469.001 301.001c0 -49.333 33 -74 99 -74s99 24.667 99 74c0 48 -33 72 -99 72s-99 -24 -99 -72z" />
    <glyph glyph-name="uni2468" unicode="&#x2468;" horiz-adv-x="1136" 
d="M929 31c-94 -93.333 -214.333 -140 -361 -140s-267 46.667 -361 140c-95.333 93.333 -143 210.333 -143 351c0 141.333 47.667 258.666 143 351.999c94.667 92.667 215 139 361 139s266.333 -46.333 361 -139c95.333 -93.333 143 -210.666 143 -351.999
c0 -140.667 -47.667 -257.667 -143 -351zM272 88c78 -78 176.668 -117 296.001 -117c118.667 0 217.667 39 297 117c78 77.333 117 175.333 117 294s-39 217 -117 295c-79.333 77.333 -178.333 116 -297 116s-217.334 -38.667 -296.001 -116
c-78.667 -78 -118 -176.333 -118 -295c0 -119.333 39.333 -217.333 118 -294zM566.001 155c-38 0 -70.334 7.83301 -97.001 23.5s-45.334 37.5 -56.001 65.5l76 21c15.333 -30 41.333 -45 78 -45c66.667 0 102.334 47.333 107.001 142c-26.667 -30.667 -66 -46 -118 -46
c-47.333 0 -85 12.667 -113 38s-42 60 -42 104c0 46 15 82.333 45 109s71.333 40 124 40c59.333 0 104 -18.5 134 -55.5s45 -90.167 45 -159.5c0 -76 -15.667 -134.5 -47 -175.5s-76.666 -61.5 -135.999 -61.5zM503 401c14.667 -14.667 36.668 -22 66.001 -22
s52.333 7.33301 69 22c17.333 14 26 32.667 26 56c0 27.333 -8.66699 48.5 -26 63.5s-40.333 22.5 -69 22.5s-50.834 -7.33301 -66.501 -22s-23.5 -34.667 -23.5 -60c0 -24.667 8 -44.667 24 -60z" />
    <glyph glyph-name="uni24EA" unicode="&#x24ea;" horiz-adv-x="1136" 
d="M929 31c-94 -93.333 -214.333 -140 -361 -140s-267 46.667 -361 140c-95.333 93.333 -143 210.333 -143 351c0 141.333 47.667 258.666 143 351.999c94.667 92.667 215 139 361 139s266.333 -46.333 361 -139c95.333 -93.333 143 -210.666 143 -351.999
c0 -140.667 -47.667 -257.667 -143 -351zM272 88c78 -78 176.668 -117 296.001 -117c118.667 0 217.667 39 297 117c78 77.333 117 175.333 117 294s-39 217 -117 295c-79.333 77.333 -178.333 116 -297 116s-217.334 -38.667 -296.001 -116
c-78.667 -78 -118 -176.333 -118 -295c0 -119.333 39.333 -217.333 118 -294zM568.001 159c-60 0 -105.667 19.333 -137 58s-47 94.667 -47 168s15.667 129.333 47 168s77 58 137 58c60.667 0 106.667 -19.333 138 -58s47 -94.667 47 -168s-15.667 -129.333 -47 -168
s-77.333 -58 -138 -58zM492.001 266c16 -24 41.332 -35.999 75.999 -35.999s60.334 12.333 77.001 37c16.667 23.333 25 62.666 25 117.999c0 54.667 -8.33301 94.334 -25 119.001c-17.333 24 -43 36 -77 36c-34.667 0 -60 -12 -76 -36
c-16.667 -24.667 -25 -64.334 -25 -119.001c0 -56 8.33301 -95.667 25 -119z" />
    <glyph glyph-name="uni24FF" unicode="&#x24ff;" horiz-adv-x="1136" 
d="M929 31c-94 -93.333 -214.333 -140 -361 -140s-267 46.667 -361 140c-95.333 93.333 -143 210.333 -143 351c0 141.333 47.667 258.666 143 351.999c94.667 92.667 215 139 361 139s266.333 -46.333 361 -139c95.333 -93.333 143 -210.666 143 -351.999
c0 -140.667 -47.667 -257.667 -143 -351zM568 159c60.667 0 106.667 19.333 138 58s47 94.667 47 168s-15.667 129.333 -47 168s-77.333 58 -138 58c-60 0 -105.667 -19.333 -137 -58s-47 -94.667 -47 -168s15.667 -129.333 47 -168s77 -58 137 -58zM645 267
c-16.667 -24.667 -42.334 -37 -77.001 -37s-60 12 -76 36c-16.667 23.333 -25 63 -25 119c0 54 8.16699 93.333 24.5 118s41.833 37 76.5 37s60.334 -12 77.001 -36c16.667 -24.667 25 -64.334 25 -119.001c0 -55.333 -8.33301 -94.666 -25 -117.999z" />
    <glyph glyph-name="filledbox" unicode="&#x25a0;" horiz-adv-x="1078" 
d="M993 -88h-908v888h908v-888z" />
    <glyph glyph-name="uni25A1" unicode="&#x25a1;" horiz-adv-x="1078" 
d="M993 -88h-908v888h908v-888zM175 720v-728h728v728h-728z" />
    <glyph glyph-name="lozenge" unicode="&#x25ca;" horiz-adv-x="551" 
d="M217 712h117l174 -356l-174 -356h-117l-174 356zM132 356l143 -308l143 308l-143 308z" />
    <glyph glyph-name="circle" unicode="&#x25cb;" horiz-adv-x="1136" 
d="M929 31c-94 -93.333 -214.333 -140 -361 -140s-267 46.667 -361 140c-95.333 93.333 -143 210.333 -143 351c0 141.333 47.667 258.666 143 351.999c94.667 92.667 215 139 361 139s266.333 -46.333 361 -139c95.333 -93.333 143 -210.666 143 -351.999
c0 -140.667 -47.667 -257.667 -143 -351zM272 88c78 -78 176.668 -117 296.001 -117c118.667 0 217.667 39 297 117c78 77.333 117 175.333 117 294s-39 217 -117 295c-79.333 77.333 -178.333 116 -297 116s-217.334 -38.667 -296.001 -116
c-78.667 -78 -118 -176.333 -118 -295c0 -119.333 39.333 -217.333 118 -294z" />
    <glyph glyph-name="uni25CF" unicode="&#x25cf;" horiz-adv-x="1136" 
d="M929 31c-94 -93.333 -214.333 -140 -361 -140s-267 46.667 -361 140c-95.333 93.333 -143 210.333 -143 351c0 141.333 47.667 258.666 143 351.999c94.667 92.667 215 139 361 139s266.333 -46.333 361 -139c95.333 -93.333 143 -210.666 143 -351.999
c0 -140.667 -47.667 -257.667 -143 -351z" />
    <glyph glyph-name="uni2776" unicode="&#x2776;" horiz-adv-x="1136" 
d="M929 31c-94 -93.333 -214.333 -140 -361 -140s-267 46.667 -361 140c-95.333 93.333 -143 210.333 -143 351c0 141.333 47.667 258.666 143 351.999c94.667 92.667 215 139 361 139s266.333 -46.333 361 -139c95.333 -93.333 143 -210.666 143 -351.999
c0 -140.667 -47.667 -257.667 -143 -351zM541 474v-297h77v427h-64l-3 -18c-6 -35.333 -32 -53 -78 -53h-35v-59h103z" />
    <glyph glyph-name="uni2777" unicode="&#x2777;" horiz-adv-x="1136" 
d="M207 734c94.667 92.667 215 139 361 139s266.333 -46.333 361 -139c95.333 -93.333 143 -210.666 143 -351.999c0 -140.667 -47.667 -257.667 -143 -351c-94 -93.333 -214.333 -140 -361 -140s-267 46.667 -361 140c-95.333 93.333 -143 210.333 -143 351
c0 141.333 47.667 258.666 143 351.999zM737 180v69h-236c2.66699 16 9.66699 29 21 39s30.666 21.667 57.999 35l52 25c36.667 17.333 63.5 36.666 80.5 57.999s25.5 47 25.5 77c0 41.333 -14.667 73.833 -44 97.5s-68.666 35.5 -117.999 35.5
c-51.333 0 -90.833 -13.167 -118.5 -39.5s-42.167 -63.166 -43.5 -110.499h80c1.33301 28.667 8 49.5 20 62.5s32.667 19.5 62 19.5c54.667 0 82 -21.667 82 -65c0 -30.667 -20.333 -56 -61 -76l-85 -41c-70 -34 -105 -96 -105 -186h330z" />
    </font>
</defs>
</svg>
